Холод у липні / Cold in July (2014) AVC Ukr/Eng | Sub Eng

Нові коментарі

Нова тема   Відповісти
Автор Повідомлення
Anonymous 







2018-11-21 20:52  
Холод у липні / Cold in July (2014) AVC Ukr/Eng | Sub Eng

Холод у липні / Cold in July (2014) AVC Ukr/Eng | Sub Eng
Альтернативні обкладинки:

Холод у липні / Cold in July (2014) AVC Ukr/Eng | Sub Eng

Холод у липні / Cold in July (2014) AVC Ukr/Eng | Sub Eng


Жанр: драма, трилер, детектив, кримінальний
Країна: США, Франція



Кінокомпанія: BSM Studio, Belladonna Production, Backup Media, Paradise City
Режисер: Джим Мікл / Jim Mickle
Актори: Майкл Голл / Michael C. Hall, Сем Шепард / Sam Shepard, Дон Джонсон / Don Johnson, Вінесса Шоу / Vinessa Shaw, Вайатт Расселл / Wyatt Russell та інші.

Сюжет:
Річард Дейн, звичайний середньостатистичний американець, випадково застрелив грабіжника, що вдерся до його будинку. Поліція впізнала в убитому давно розшукуваного злочинця і його швидко поховали. Однак незабаром з'явився батько загиблого, Бен Рассел, який живе за принципом "око за око" і хоче помститися за сина. Але незабаром Річард побачив фото людини з ім'ям убитого ним злодія - це було фото злочинця у розшуку і це була зовсім інша особа. Поліцейські підставили його чи сталася трагічна помилка? Разом з Беном і його другом, приватним детективом Джимом, Річард починає справжню війну за правду та справедливість.


Рейтинг MPAA: R - особам до 17 років обов'язкова присутність батьків або дорослого опікуна
Вікова категорія: 16+

Тривалість: 01:50:02
Якість: AVC
Відео:
кодек:
розмір кадру: 1152х480
бітрейт: 2969 кб/с

Аудіо # 1:
мова: українська
переклад: багатоголосий закадровий | Компанія "Кіт", запис з ТК "Oboz.tv"
кодек: 2.0
бітрейт: 192 кб/с

Аудіо # 2:
мова: англійська
переклад: оригінал
кодек: 5.1
бітрейт: 448 кб/с

Субтитри:
мова: англійська (SDH)
тип: програмні (м'які)
формат: *.srt

Збережено оригінальні розділи, як на Blu-ray
Info
Код:

Complete name               : Cold in July (2014) [Ukr,Eng sub.Eng] AVC [Hurtom].
Format                      :
Format version              : Version 4
File size                   : 2.77 GiB
Duration                    : 1 h 50 min
Overall bit rate            : 3 606 kb/s
Movie name                  : Холод у липні / Cold in July (2014) [Ukr,Eng sub.Eng] AVC [Hurtom]
Encoded date                : UTC 2018-11-21 16:42:31
Writing application         : v28.2.0 ('The Awakening') 64-bit
Writing library             : libebml v1.3.6 + v1.4.9
Cover                       : Yes
Attachments                 : cover.jpg

Video
ID                          : 1
Format                      : AVC
Format/Info                 : Advanced Video Codec
Format profile              : [email protected]
Format settings             : CABAC / 8 Ref Frames
Format settings, CABAC      : Yes
Format settings, ReFrames   : 8 frames
Codec ID                    : V_MPEG4/ISO/AVC
Duration                    : 1 h 50 min
Bit rate                    : 2 969 kb/s
Width                       : 1 152 pixels
Height                      : 480 pixels
Display aspect ratio        : 2.40:1
Frame rate mode             : Constant
Frame rate                  : 23.976 (24000/1001) FPS
Color space                 : YUV
Chroma subsampling          : 4:2:0
Bit depth                   : 8 bits
Scan type                   : Progressive
Bits/(Pixel*Frame)          : 0.224
Stream size                 : 2.28 GiB (82%)
Title                       : Холод у липні / Cold in July (2014) AVC
Writing library             : core 142 r2431 ac76440
Encoding settings           : cabac=1 / ref=8 / deblock=1:-2:-1 / analyse=0x3:0x133 / me=umh / subme=9 / psy=1 / psy_rd=1.00:0.05 / mixed_ref=0 / me_range=36 / chroma_me=1 / trellis=2 / 8x8dct=1 / cqm=0 / deadzone=21,11 / fast_pskip=0 / chroma_qp_offset=-3 / threads=4 / lookahead_threads=1 / sliced_threads=0 / nr=0 / decimate=0 / interlaced=0 / bluray_compat=0 / constrained_intra=0 / bframes=12 / b_pyramid=2 / b_adapt=2 / b_bias=0 / direct=1 / weightb=1 / open_gop=0 / weightp=2 / keyint=240 / keyint_min=23 / scenecut=40 / intra_refresh=0 / rc=2pass / mbtree=0 / bitrate=2969 / ratetol=1.0 / qcomp=0.60 / qpmin=10 / qpmax=69 / qpstep=4 / cplxblur=20.0 / qblur=0.5 / ip_ratio=1.40 / pb_ratio=1.30 / aq=1:1.00
Language                    : English
Default                     : Yes
Forced                      : No

Audio #1
ID                          : 2
Format                      : AC-3
Format/Info                 : Audio Coding 3
Commercial name             : Dolby Digital
Codec ID                    : A_AC3
Duration                    : 1 h 47 min
Bit rate mode               : Constant
Bit rate                    : 192 kb/s
Channel(s)                  : 2 channels
Channel layout              : L R
Sampling rate               : 48.0 kHz
Frame rate                  : 31.250 FPS (1536 SPF)
Bit depth                   : 16 bits
Compression mode            : Lossy
Stream size                 : 148 MiB (5%)
Title                       : MVO [Kit, ObozTV] 2.0 192 Kbps
Language                    : Ukrainian
Service kind                : Complete Main
Default                     : Yes
Forced                      : Yes

Audio #2
ID                          : 3
Format                      : AC-3
Format/Info                 : Audio Coding 3
Commercial name             : Dolby Digital
Codec ID                    : A_AC3
Duration                    : 1 h 50 min
Bit rate mode               : Constant
Bit rate                    : 448 kb/s
Channel(s)                  : 6 channels
Channel layout              : L R C LFE Ls Rs
Sampling rate               : 48.0 kHz
Frame rate                  : 31.250 FPS (1536 SPF)
Bit depth                   : 16 bits
Compression mode            : Lossy
Stream size                 : 353 MiB (12%)
Title                       : Original, 5.1 448 Kbps
Language                    : English
Service kind                : Complete Main
Default                     : No
Forced                      : No

Text
ID                          : 4
Format                      : UTF-8
Codec ID                    : S_TEXT/UTF8
Codec ID/Info               : UTF-8 Plain Text
Duration                    : 1 h 49 min
Bit rate                    : 49 b/s
Count of elements           : 1784
Stream size                 : 39.9 KiB (0%)
Title                       : Eng SDH
Language                    : English
Default                     : No
Forced                      : No

Menu
00:00:00.000                : en:00:00:00.000
00:07:02.881                : en:00:07:02.881
00:17:19.372                : en:00:17:19.372
00:26:53.737                : en:00:26:53.737
00:37:13.731                : en:00:37:13.731
00:44:20.950                : en:00:44:20.950
00:55:18.398                : en:00:55:18.398
01:04:46.091                : en:01:04:46.091
01:12:50.449                : en:01:12:50.449
01:22:56.555                : en:01:22:56.555
01:34:49.183                : en:01:34:49.183
01:45:44.505                : en:01:45:44.505
Скріншоти
Джерело: &
Подяка DareDevil96 за запис з ТБ та kryk-v.ya. за синхронізацію звуку та надану доріжку.


 Трекер:    Зареєстрований   

Завантажити / скачати фільм українською



відео для новачків



 Зареєстрований:   2018-11-21 20:52
 Розмір:   2.77 GB 
 Оцінка фільму:   9.1/10 (Голосів: 24)
 ЗАЛИШАЙТЕСЬ ЯКОМОГА ДОВШЕ НА РОЗДАЧІ! ЗАВАНТАЖИВ САМ - ДАЙ ЗАВАНТАЖИТИ ІНШИМ!
   
Інші релізи
kuts-vv 
Поважний учасник


З нами з: 11.12.11
Востаннє: 22.04.19
Повідомлень: 220

2018-11-22 21:48  
Нічого такий фільм.
hitmanhunter 
Свій


З нами з: 15.09.16
Востаннє: 22.04.19
Повідомлень: 90

2018-11-23 21:33  
фільм хороший, але кінцівку могли б зробити трохи позитивнішою
Ua.bos_01 
VIP


З нами з: 22.06.15
Востаннє: 21.04.19
Повідомлень: 1554

2018-12-08 14:02  
Непоганий детектив з елементами триллеру. Більше б таких проектів. Особливо добре зіграно головним персонажем фільму - Майклом Голлом. Ще сподобалась атмосфера того часу і подій, які розвивались довкола головного героя. Прикро лише, що не розкритим лишився кейс з шерифом та федералами. Але, даний фільм однозначно вартий уваги.
deemonmeister 
Частий відвідувач


З нами з: 24.02.15
Востаннє: 22.04.19
Повідомлень: 30

2018-12-18 19:44  
Гарний фільм. Дякую.
Ваш часовий пояс: GMT + 2 Години

Нова тема   Відповісти