Пророк / Un prophete / A Prophet (2009) 1080p Ukr/Fra | Sub Eng

Нові коментарі

Нова тема   Відповісти
Автор Повідомлення
staf777 
Відео Гуртом - підтримка та поширення
Відео Гуртом - підтримка та поширення


З нами з: 16.11.16
Востаннє: 23.04.19
Повідомлень: 2284

2018-11-21 20:44  
Пророк / Un prophete / A Prophet (2009) 1080p Ukr/Fra | Sub Eng

Пророк / Un prophete / A Prophet (2009) 1080p Ukr/Fra | Sub Eng


Жанр: драма, кримінальний
Країна: Франція, Італія



Кінокомпанія: Why Not Productions, Chic Films, Page 114, France 2 Cinéma, Union Générale Cinématographique (UGC), BIM Distribuzione, Celluloid Dreams
Режисер: Жак Одіар
Актори: Тахар Рахім, Нільс Ареструп, Адель Беншеріф, Хайсам Якубі, Реда Катеб, Жан-Філіп Річчі, Жиль Коен, Антуан Баслер, Лейла Бехта, П'єр Лечче та інші.

Сюжет:
Засуджений до шести років в'язниці, Малік Ель Джебена здається на тлі інших ув'язнених найбільш "зеленим" і вразливим. Йому 19 років. Він не вміє ні писати, ні читати. За стінами в'язниці у нього немає близьких. Все змінюється, коли Лучано, лідер авторитетної банди корсиканців, вирішує доручити Маліку ряд небезпечних і ризикованих місій ... Виконання будь-якої з цих «місій» під тиском корсиканців могло б зламати кого завгодно, але не його. Кожне завдання загартовує Маліка. Він швидко вчиться життя в новому для себе світі. Здобуває довіру корсиканців і мусульман. І незабаром починає виношувати власні зухвалі плани ...


Тривалість: 02:35:04
Якість: 1080p
Відео:
кодек:
розмір кадру: 1920x1036
бітрейт: 14.6 Мб/с

Аудіо # 1:
мова: українська
переклад: двоголосий закадровий
кодек: 5.1
бітрейт: 448 кб/с

Аудіо # 2:
мова: французька
переклад: оригінал
кодек: 5.1
бітрейт: 1509 кб/с

Субтитри:
мова: англійська
тип: програмні (м'які)
формат: *.srt
Скріншоти






MI
General
Unique ID : 35452024351143218564982743690825229458 (0x1AABCFC0584F80436989FD877874E492)
Complete name : N:\Un prophete (2009) 1080p [UKR][ENG][Hurtom].
Format :
Format version : Version 4 / Version 2
File size : 17.9 GiB
Duration : 2 h 35 min
Overall bit rate : 16.6 Mb/s
Movie name : Un prophete (2009) 1080p [UKR][ENG][Hurtom]
Encoded date : UTC 2018-11-22 13:48:31
Writing application : v24.0.0 ('Beyond The Pale') 64-bit
Writing library : libebml v1.3.6 + v1.4.9
Cover : Yes
Attachments : cover.jpg

Video
ID : 1
Format : AVC
Format/Info : Advanced Video Codec
Format profile : [email protected]
Format settings : CABAC / 4 Ref Frames
Format settings, CABAC : Yes
Format settings, ReFrames : 4 frames
Codec ID : V_MPEG4/ISO/AVC
Duration : 2 h 35 min
Bit rate : 14.6 Mb/s
Width : 1 920 pixels
Height : 1 036 pixels
Display aspect ratio : 1.85:1
Frame rate mode : Constant
Frame rate : 24.000 FPS
Color space : YUV
Chroma subsampling : 4:2:0
Bit depth : 8 bits
Scan type : Progressive
Bits/(Pixel*Frame) : 0.306
Stream size : 15.8 GiB (88%)
Title : Release for HDCLUB
Writing library : core 85 r1442kGIT 781d300
Encoding settings : cabac=1 / ref=4 / deblock=1:-3:-3 / analyse=0x3:0x113 / me=umh / subme=10 / psy=1 / psy_rd=1.00:0.00 / mixed_ref=0 / me_range=64 / chroma_me=1 / trellis=2 / 8x8dct=1 / cqm=0 / deadzone=21,11 / fast_pskip=0 / chroma_qp_offset=-2 / threads=12 / sliced_threads=0 / nr=0 / decimate=0 / mbaff=0 / interlaced=0 / constrained_intra=0 / bframes=8 / b_pyramid=2 / b_adapt=2 / b_bias=0 / direct=3 / wpredb=1 / wpredp=2 / keyint=250 / keyint_min=25 / scenecut=40 / intra_refresh=0 / rc_lookahead=100 / rc=2pass / mbtree=1 / bitrate=14607 / ratetol=1.0 / qcomp=0.60 / qpmin=10 / qpmax=51 / qpstep=4 / cplxblur=20.0 / qblur=0.5 / vbv_maxrate=40000 / vbv_bufsize=40000 / ip_ratio=1.40 / aq=1:0.80 / pulldown=0 / nal_hrd=0
Language : French
Default : Yes
Forced : No

Audio #1
ID : 2
Format : AC-3
Format/Info : Audio Coding 3
Codec ID : A_AC3
Duration : 2 h 35 min
Bit rate mode : Constant
Bit rate : 448 kb/s
Channel(s) : 6 channels
Channel positions : Front: L C R, Side: L R, LFE
Sampling rate : 48.0 kHz
Frame rate : 31.250 FPS (1536 SPF)
Bit depth : 16 bits
Compression mode : Lossy
Stream size : 497 MiB (3%)
Title : 5.1 448 Kbps [Ukr-Dvo]
Language : Ukrainian
Service kind : Complete Main
Default : Yes
Forced : Yes

Audio #2
ID : 3
Format :
Format/Info : Digital Theater Systems
Codec ID : A_DTS
Duration : 2 h 35 min
Bit rate mode : Constant
Bit rate : 1 509 kb/s
Channel(s) : 6 channels
Channel positions : Front: L C R, Side: L R, LFE
Sampling rate : 48.0 kHz
Frame rate : 93.750 FPS (512 SPF)
Bit depth : 24 bits
Compression mode : Lossy
Stream size : 1.63 GiB (9%)
Title : 5.1 1536 Kbps [Original]
Language : French
Default : No
Forced : No

Text
ID : 4
Format : UTF-8
Codec ID : S_TEXT/UTF8
Codec ID/Info : UTF-8 Plain Text
Duration : 2 h 28 min
Bit rate : 32 b/s
Count of elements : 1027
Stream size : 35.4 KiB (0%)
Language : English
Default : No
Forced : No

Menu
00:00:00.000 : en:00:00:00.000
00:00:46.875 : en:00:00:46.875
00:04:49.000 : en:00:04:49.000
00:13:57.875 : en:00:13:57.875
00:23:55.000 : en:00:23:55.000
00:30:38.125 : en:00:30:38.125
00:38:26.000 : en:00:38:26.000
00:41:50.000 : en:00:41:50.000
00:48:12.000 : en:00:48:12.000
00:56:55.000 : en:00:56:55.000
01:03:17.000 : en:01:03:17.000
01:11:04.625 : en:01:11:04.625
01:21:03.083 : en:01:21:03.083
01:31:27.500 : en:01:31:27.500
01:41:11.000 : en:01:41:11.000
01:51:45.542 : en:01:51:45.542
01:57:20.000 : en:01:57:20.000
02:08:13.708 : en:02:08:13.708
02:15:38.792 : en:02:15:38.792
02:18:31.000 : en:02:18:31.000
02:22:13.583 : en:02:22:13.583
02:22:57.542 : en:02:22:57.542
02:28:47.625 : en:02:28:47.625

Romario_O українська звукова доріжка bilenkuyboy українізований постер
Джерело: &
Особиста оцінка: 0 - не дивився
ЗАЛИШАЙТЕСЬ ЯКОМОГА ДОВШЕ НА РОЗДАЧІ!

СКАЧАВ САМ - ДАЙ СКАЧАТИ ІНШИМ



 Трекер:    Зареєстрований   

Завантажити / скачати фільм українською



відео для новачків



 Зареєстрований:   2018-11-22 19:01
 Розмір:   17.94 GB 
 Оцінка фільму:   8.3/10 (Голосів: 8)
   
Інші релізи
bot 
робот


З нами з: 30.09.07
Востаннє: 26.05.05
Повідомлень: 21237

2018-11-22 19:01  
Тему перенесено з Анонси релізів до форуму Фільми в HD


staf777

[email protected] 
VIP


З нами з: 25.03.17
Востаннє: 21.04.19
Повідомлень: 292

2019-04-02 23:31  
Мені фільм сподобався, як на мене варто переглянути
Ваш часовий пояс: GMT + 2 Години

Нова тема   Відповісти