Дикі штучки [Розширена версія] / Wild Things [UNRATED] (1998) AVC Ukr/Eng | Sub Eng

Нові коментарі

Нова тема   Відповісти
Автор Повідомлення
staf777 
Відео Гуртом - підтримка та поширення
Відео Гуртом - підтримка та поширення


З нами з: 16.11.16
Востаннє: 24.04.19
Повідомлень: 2284

2018-11-21 12:26  
Дикі штучки [Розширена версія] / Wild Things [UNRATED] (1998) AVC Ukr/Eng | Sub Eng



"Її краса вимагає жертв"

"Помста ще ніколи не була такою солодкою"


Альтернативний українізований постер


Жанр: еротичний трилер, кримінальний, детектив
Країна: США



Кінокомпанія: Mandalay Entertainment
Режисер: Джон МакНоутон / John McNaughton
Актори: Кевін Бейкон / Kevin Bacon, Метт Ділон / Matt Dillon, Нів Кемпбелл / Neve Campbell, Тереза Расселл / Theresa Russell, Деніз Річардс / Denise Richards, Білл Мюррей / Bill Murray та інші

Сюжет: (від Delight`):
"Дикі штучки"- еротичний трилер. Одна таємниця розкривається за іншою, у міру того, як життя чотирьох хитрих головних героїв переплітаються і міняються у дивному лабіринті з правди і неправди. Вийде з нього тільки найсильніший.

(від imonko):
Вродлива старшокласниця Келі Ван Райан звинувачує свого вчителя Сема Ломбардо у згвалтуванні. Мабуть, вона так вчинила, бо він не піддався на її чари. Через кілька днів у цьому ж злочині, який було вчинено рік тому, Сема звинувачує інша школярка Сюзі Толлер. Розслідування ведуть поліцейські Рей Дюкетт і Глорія Перес. Вони знають, що Сем колись мешкав із матір'ю Келі, заможною і могутньою Сандрою Ван Райан. Ломбардо звертається по допомогу до адвоката Кена Боудена, і той на суді викриває Сюзі...

(переклад з кінопоіска):
Сімнадцятирічна Келлі закохується у свого вчителя Сема. Вона використовує всі можливі способи, щоб привернути його увагу, але безрезультатно. А коли дівчина не отримує бажаного, вона починає мстити - звинувачує Сема у зґвалтуванні. Доказів явно недостатньо, доки на допомогу Келлі не приходить її подруга, яка готова свідчити. Але незабаром дівчина розуміє, що є лише пішаком у нечесній грі ...
Цікаві факти
• Роберту Дауні була запропонована роль Сема Ломбардо, але він її відхилив.
• Режисер Джон МакНотон сказав, що він видалив сцену, в якій Метт Діллон і Кевін Бейкон миються разом, оскільки не захотів, щоб у картині звучали гомосексуальні нотки.
• В інтерв'ю Бейкон сказав, що в його контракті не було пункту про оголену натуру, а оскільки він був продюсером фільму, як актор міг подати на самого себе до суду.
• Перед тим, як знімати сцену на річці, член групи, який працював над освітленням, перевіряв прожектори і помітив труп людини. Прибула поліція і відтягнула його до берега, щоб він не потрапляв в об’єктив. Коли сцена була знята, поліцейські витягли труп з річки.
рейтинг MPAA: R - особам до 17 років обов'язкова присутність батьків або дорослого опікуна
Вікова категорія: 18+

Тривалість: 01:54:46 - Відмінності Театральної та Розширеної версій
Якість: AVC
Відео:
кодек:
розмір кадру: 1024x428
бітрейт: 2500 кб/с

Аудіо # 1:
мова: українська - Так Треба Продакшн на замовлення , запис з
переклад: багатоголосий закадровий
Ролі озвучили: Олег Стальчук (Білл Мюррей / Кен Боуден), Анатолій Пашнін, Наталя Задніпровська і Олена Яблучна
кодек: 2.0
бітрейт: 192 кб/с

Аудіо # 2:
мова: англійська
переклад: оригінал
кодек: 5.1
бітрейт: 448 кб/с

Субтитри # 1:
мова: українська (форсовані, на неозвучені місця розширеної версії, загалом не більше 5 хв.)
тип: програмні (м'які)
формат: *.srt

Субтитри # 2:
мова: англійська (повні)
тип: програмні (м'які)
формат: *.srt

Збережено оригінальні розділи, як на Blu-ray.
Info
General
Unique ID : 178854766479155669454168332066909047279 (0x868E2CCFCE30B521DDB55F0F32E3C9EF)
Complete name : N:\Фільми AVC\Трилер\Wild Things [UNRATED] (1998) AVC [UKR][ENG][Hurtom].
Format :
Format version : Version 4 / Version 2
File size : 2.52 GiB
Duration : 1 h 54 min
Overall bit rate : 3 140 kb/s
Movie name : Wild Things [UNRATED] (1998) AVC [UKR][ENG][Hurtom]
Encoded date : UTC 2018-11-21 13:44:50
Writing application : v24.0.0 ('Beyond The Pale') 64-bit
Writing library : libebml v1.3.6 + v1.4.9
Cover : Yes
Attachments : cover.jpg

Video
ID : 1
Format : AVC
Format/Info : Advanced Video Codec
Format profile : [email protected]
Format settings : CABAC / 8 Ref Frames
Format settings, CABAC : Yes
Format settings, ReFrames : 8 frames
Codec ID : V_MPEG4/ISO/AVC
Duration : 1 h 54 min
Bit rate : 2 500 kb/s
Width : 1 024 pixels
Height : 428 pixels
Display aspect ratio : 2.40:1
Frame rate mode : Constant
Frame rate : 23.976 (24000/1001) FPS
Color space : YUV
Chroma subsampling : 4:2:0
Bit depth : 8 bits
Scan type : Progressive
Bits/(Pixel*Frame) : 0.238
Stream size : 2.00 GiB (80%)
Writing library : core 118 r2085 8a62835
Encoding settings : cabac=1 / ref=8 / deblock=1:-2:-2 / analyse=0x3:0x133 / me=umh / subme=11 / psy=1 / psy_rd=0.90:0.00 / mixed_ref=1 / me_range=48 / chroma_me=1 / trellis=2 / 8x8dct=1 / cqm=0 / deadzone=21,11 / fast_pskip=0 / chroma_qp_offset=-2 / threads=6 / sliced_threads=0 / nr=0 / decimate=1 / interlaced=0 / bluray_compat=0 / constrained_intra=0 / bframes=6 / b_pyramid=2 / b_adapt=2 / b_bias=0 / direct=3 / weightb=1 / open_gop=0 / weightp=2 / keyint=250 / keyint_min=23 / scenecut=40 / intra_refresh=0 / rc=2pass / mbtree=0 / bitrate=2500 / ratetol=1.0 / qcomp=0.60 / qpmin=10 / qpmax=51 / qpstep=4 / cplxblur=20.0 / qblur=0.5 / ip_ratio=1.40 / pb_ratio=1.30 / aq=1:1.00
Language : English
Default : No
Forced : No

Audio #1
ID : 2
Format : AC-3
Format/Info : Audio Coding 3
Codec ID : A_AC3
Duration : 1 h 54 min
Bit rate mode : Constant
Bit rate : 192 kb/s
Channel(s) : 2 channels
Channel positions : Front: L R
Sampling rate : 48.0 kHz
Frame rate : 31.250 FPS (1536 SPF)
Bit depth : 16 bits
Compression mode : Lossy
Stream size : 158 MiB (6%)
Title : [Ukr-Mvo]
Language : Ukrainian
Service kind : Complete Main
Default : Yes
Forced : Yes

Audio #2
ID : 3
Format : AC-3
Format/Info : Audio Coding 3
Codec ID : A_AC3
Duration : 1 h 54 min
Bit rate mode : Constant
Bit rate : 448 kb/s
Channel(s) : 6 channels
Channel positions : Front: L C R, Side: L R, LFE
Sampling rate : 48.0 kHz
Frame rate : 31.250 FPS (1536 SPF)
Bit depth : 16 bits
Compression mode : Lossy
Stream size : 368 MiB (14%)
Language : English
Service kind : Complete Main
Default : No
Forced : No

Text #1
ID : 4
Format : UTF-8
Codec ID : S_TEXT/UTF8
Codec ID/Info : UTF-8 Plain Text
Duration : 1 h 41 min
Bit rate : 4 b/s
Count of elements : 65
Stream size : 3.22 KiB (0%)
Title : [Forced]
Language : Ukrainian
Default : Yes
Forced : Yes

Text #2
ID : 5
Format : UTF-8
Codec ID : S_TEXT/UTF8
Codec ID/Info : UTF-8 Plain Text
Duration : 1 h 50 min
Bit rate : 58 b/s
Count of elements : 1306
Stream size : 47.2 KiB (0%)
Title : SDH
Language : English
Default : No
Forced : No

Text #3
ID : 6
Format : UTF-8
Codec ID : S_TEXT/UTF8
Codec ID/Info : UTF-8 Plain Text
Duration : 1 h 47 min
Bit rate : 56 b/s
Count of elements : 1142
Stream size : 44.7 KiB (0%)
Title : full
Language : English
Default : No
Forced : No





Джерела та подяки:
ріп відео, оригінальні звук та субтитри - ; українська доріжка - Delight` - зведення, xslim - запис з ТБ; українські форсовані субтитри - LX340; український постер - d1mma (всі - Гуртом). Окрема подяка igor911 за допомогу у створенні релізу.

ЗАЛИШАЙТЕСЬ ЯКОМОГА ДОВШЕ НА РОЗДАЧІ!

СКАЧАВ САМ - ДАЙ СКАЧАТИ ІНШИМ


Срібний реліз (на рейтинг впливає 50% завантаженого)
 Трекер:    Зареєстрований   

Завантажити / скачати фільм українською



відео для новачків



 Зареєстрований:   2018-11-21 17:33
 Розмір:   2.52 GB 
 Оцінка фільму:   8.9/10 (Голосів: 14)
   
bot 
робот


З нами з: 30.09.07
Востаннє: 26.05.05
Повідомлень: 21237

2018-11-21 17:33  
Тему перенесено з Анонси релізів до форуму Фільми


staf777

Ваш часовий пояс: GMT + 2 Години

Нова тема   Відповісти