Це кляте серце / Dieses bescheuerte Herz (2017) 1080p Ukr/Ger | Sub Ger

Нові коментарі

Нова тема   Відповісти
Автор Повідомлення
staf777 
Відео Гуртом - підтримка та поширення
Відео Гуртом - підтримка та поширення


З нами з: 16.11.16
Востаннє: 19.09.20
Повідомлень: 4018

2018-11-21 11:53  
Це кляте серце / Dieses bescheuerte Herz (2017) 1080p Ukr/Ger | Sub Ger

Це кляте серце / Dieses bescheuerte Herz (2017) 1080p Ukr/Ger | Sub Ger


Жанр: драма, комедія
Країна: Німеччина



Кінокомпанія: Constantin Film Produktion
Режисер: Марк Ротемунд
Актори: Еліас ЕмБарек, Філіп Шварц, Надіна Вріц, Уве Пройсс, Ліза Біттер, Юрген Тонкель, Теша Мун Кріг, Карін Талер, Софія Шобер, Себастьян Герольд та інші

Сюжет:
Усе своє життя 30-річний Ленні вештався без діла та витрачав зароблені батьком гроші. Коли терпінню батька прийшов кінець, він дав синові завдання – доглядати 15-річного юнака із хворим серцем. Його звати Деніел і через вроджений порок серця лікарі кажуть, що йому залишилось жити не більше року. Ленні, який звик усе сприймати легко та з гумором, тепер увесь свій час проводить з Деніелом, якому не до жартів. Спілкування, що спершу було вимушеним, для обох стало необхідним ковтком повітря та уроком як потрібно відноситися до свого життя.


Тривалість: 01:46:21
Якість:
Відео:
кодек:
розмір кадру: 1920x802
бітрейт: 9400 кб/с

Аудіо # 1:
мова: українська
переклад: багатоголосий закадровий
кодек: 2.0 [стерео]
бітрейт: 192 кб/с

Аудіо # 2:
мова: німецька
переклад: оригінал
кодек: 5.1
бітрейт: 640 кб/с

Субтитри:
мова: німецька
тип: програмні (м'які)
формат: *.srt
Info
General
Unique ID : 235519579242378837089159661605744187150 (0xB12F6BC7A79644A1D51066004B8A970E)
Complete name : G:\Комедія\Dieses bescheuerte Herz (2017) 1080p [UKR][GER][Hurtom].
Format :
Format version : Version 4 / Version 2
File size : 7.60 GiB
Duration : 1 h 46 min
Overall bit rate : 10.2 Mb/s
Movie name : Dieses bescheuerte Herz (2017) 1080p [UKR][GER][Hurtom]
Encoded date : UTC 2018-11-21 09:19:10
Writing application : v24.0.0 ('Beyond The Pale') 64-bit
Writing library : libebml v1.3.6 + v1.4.9
Cover : Yes
Attachments : cover.jpg

Video
ID : 1
Format : AVC
Format/Info : Advanced Video Codec
Format profile : [email protected]
Format settings : CABAC / 5 Ref Frames
Format settings, CABAC : Yes
Format settings, ReFrames : 5 frames
Codec ID : V_MPEG4/ISO/AVC
Duration : 1 h 46 min
Bit rate : 9 400 kb/s
Width : 1 920 pixels
Height : 802 pixels
Display aspect ratio : 2.40:1
Frame rate mode : Constant
Frame rate : 24.000 FPS
Color space : YUV
Chroma subsampling : 4:2:0
Bit depth : 8 bits
Scan type : Progressive
Bits/(Pixel*Frame) : 0.254
Stream size : 6.98 GiB (92%)
Writing library : core 155 r2901M 7d0ff22
Encoding settings : cabac=1 / ref=5 / deblock=1:-1:-1 / analyse=0x3:0x113 / me=umh / subme=11 / psy=1 / psy_rd=1.00:0.00 / mixed_ref=1 / me_range=48 / chroma_me=1 / trellis=2 / 8x8dct=1 / cqm=0 / deadzone=21,11 / fast_pskip=0 / chroma_qp_offset=-2 / threads=9 / lookahead_threads=2 / sliced_threads=0 / nr=0 / decimate=0 / interlaced=0 / bluray_compat=0 / constrained_intra=0 / bframes=12 / b_pyramid=2 / b_adapt=2 / b_bias=0 / direct=3 / weightb=1 / open_gop=0 / weightp=2 / keyint=240 / keyint_min=24 / scenecut=40 / intra_refresh=0 / rc_lookahead=120 / rc=2pass / mbtree=0 / bitrate=9400 / ratetol=1.0 / qcomp=0.70 / qpmin=0 / qpmax=69 / qpstep=4 / cplxblur=20.0 / qblur=0.5 / vbv_maxrate=50000 / vbv_bufsize=62500 / nal_hrd=none / filler=0 / ip_ratio=1.40 / pb_ratio=1.30 / aq=3:0.80
Default : Yes
Forced : No

Audio #1
ID : 2
Format : AC-3
Format/Info : Audio Coding 3
Codec ID : A_AC3
Duration : 1 h 46 min
Bit rate mode : Constant
Bit rate : 192 kb/s
Channel(s) : 2 channels
Channel positions : Front: L R
Sampling rate : 48.0 kHz
Frame rate : 31.250 FPS (1536 SPF)
Bit depth : 16 bits
Compression mode : Lossy
Stream size : 146 MiB (2%)
Title : [UKR-MVO]
Language : Ukrainian
Service kind : Complete Main
Default : Yes
Forced : Yes

Audio #2
ID : 3
Format : AC-3
Format/Info : Audio Coding 3
Codec ID : A_AC3
Duration : 1 h 46 min
Bit rate mode : Constant
Bit rate : 640 kb/s
Channel(s) : 6 channels
Channel positions : Front: L C R, Side: L R, LFE
Sampling rate : 48.0 kHz
Frame rate : 31.250 FPS (1536 SPF)
Bit depth : 16 bits
Compression mode : Lossy
Stream size : 487 MiB (6%)
Language : German
Service kind : Complete Main
Default : No
Forced : No

Text
ID : 4
Format : UTF-8
Codec ID : S_TEXT/UTF8
Codec ID/Info : UTF-8 Plain Text
Duration : 1 h 45 min
Bit rate : 56 b/s
Count of elements : 1340
Stream size : 44.1 KiB (0%)
Language : German
Default : No
Forced : No

Menu
00:00:00.000 : en:Chapter 1
00:06:30.583 : en:Chapter 2
00:12:45.916 : en:Chapter 3
00:21:06.125 : en:Chapter 4
00:28:07.458 : en:Chapter 5
00:36:11.125 : en:Chapter 6
00:42:57.458 : en:Chapter 7
00:51:28.541 : en:Chapter 8
00:57:14.541 : en:Chapter 9
01:03:08.458 : en:Chapter 10
01:10:24.958 : en:Chapter 11
01:16:56.250 : en:Chapter 12
01:23:53.125 : en:Chapter 13
01:29:51.041 : en:Chapter 14
01:34:51.041 : en:Chapter 15
01:41:39.416 : en:Chapter 16
Скріншоти







Джерело: &
Особиста оцінка: 8 - мені сподобалося
Це кляте серце / Dieses bescheuerte Herz (2017) 1080p Ukr/Ger | Sub Ger Це кляте серце / Dieses bescheuerte Herz (2017) 1080p Ukr/Ger | Sub Ger


 Трекер:    Зареєстрований   

Завантажити / скачати фільм українською



відео для новачків



 Зареєстрований:   2018-11-21 12:36
 Розмір:   7.6 GB 
 Оцінка фільму:   9.1/10 (Голосів: 15)
   
Arsen4uk 
Новенький


З нами з: 08.12.11
Востаннє: 18.09.20
Повідомлень: 24

2018-12-31 01:38  
Приємний фільм, показує хороші цінності) мені сподобався =)
Ваш часовий пояс: GMT + 2 Години

Нова тема   Відповісти