Монахиня / The Nun (2018) 1080p Ukr/Eng | Sub Eng

Нові коментарі

Нова тема   Відповісти
Автор Повідомлення
Anonymous 







2018-11-21 01:24  
Монахиня / The Nun (2018) 1080p Ukr/Eng | Sub Eng

Монахиня / The Nun (2018) 1080p Ukr/Eng | Sub Eng
Кінотеатральний постер:

Монахиня / The Nun (2018) 1080p Ukr/Eng | Sub Eng


Жанр: жахи, трилер, детектив
Країна: США



Кінокомпанія: Atomic Monster,New Line Cinema,The Safran Company
Режисер: Корін Гарді / Corin Hardy
Актори: Деміан Бішир / Demián Bichir, Таісса Фарміга / Taissa Farmiga, Йонас Блоке / Jonas Bloquet, Бонні Ааронс / Bonnie Aarons, Інгрід Бісу / Ingrid Bisu, Шарлотта Гоуп / Charlotte Hope, Сандра Телес / Sandra Teles, Аугуст Матуро / August Maturo, Джек Фальк / Jack Falk, Лінетт Газа / Lynnette Gaza та інші

Сюжет:
Другий спін-оф фільму «Закляття». Коли молода монахиня вчиняє суїцид в усамітненому абатстві в Румунії, Ватикан відправляє двох священиків провести розслідування. Ризикуючи не лише власними життями, але й вірою та душею, вони стикаються зі страшною силою, демонічною монахинею, яка тероризувала родину у «Заклятті 2». І абатство стає страшним полем битви між живими та проклятими.
Офіційні українські офіційні тизер, промо та 360° відео:

тизер:


Втеча з абатства (360° відео - можна повертати у всі боки при перегляді):


промо 1:


промо 2:


промо 3:

Рейтинг MPAA: R - особам до 17 років обов'язкова присутність батьків або дорослого опікуна
Вікова категорія: 16+

Тривалість: 01:36:34
Якість: 1080p

Відео:
кодек:
розмір кадру: 1920х800
бітрейт: 10,1 Мб/с

Аудіо # 1:
мова: українська
переклад: професійний дубльований | студія Postmodern
кодек: 2.0 [стерео]
бітрейт: 192 кб/с
примітка: з українською 5.1 доріжкою можна переглянути в Google Play

Аудіо # 2:
мова: англійська
переклад: оригінал
кодек: АC3 5.1
бітрейт: 448 кб/с

Субтитри # 1:
мова: українська (форсовані)
тип: програмні (м'які)
формат: *.srt

Субтитри # 2-3:
мова: англійська (повні, SDH)
тип: програмні (м'які)
формат: *.srt

Збережено оригінальні розділи, як на Blu-ray
Info
Код:

Complete name               : The Nun (2018) [Ukr,Eng sub.Eng] 1080p [Hurtom].
Format                      :
Format version              : Version 4
File size                   : 7.24 GiB
Duration                    : 1 h 36 min
Overall bit rate            : 10.7 Mb/s
Movie name                  : Монахиня / The Nun (2018) [Ukr,Eng sub.Eng] 1080p [Hurtom]
Encoded date                : UTC 2018-11-30 16:53:18
Writing application         : v28.2.0 ('The Awakening') 64-bit
Writing library             : libebml v1.3.6 + v1.4.9
Cover                       : Yes
Attachments                 : cover.jpg

Video
ID                          : 1
Format                      : AVC
Format/Info                 : Advanced Video Codec
Format profile              : [email protected]
Format settings             : CABAC / 4 Ref Frames
Format settings, CABAC      : Yes
Format settings, ReFrames   : 4 frames
Codec ID                    : V_MPEG4/ISO/AVC
Duration                    : 1 h 36 min
Bit rate                    : 10.1 Mb/s
Width                       : 1 920 pixels
Height                      : 800 pixels
Display aspect ratio        : 2.40:1
Frame rate mode             : Constant
Frame rate                  : 23.976 (24000/1001) FPS
Color space                 : YUV
Chroma subsampling          : 4:2:0
Bit depth                   : 8 bits
Scan type                   : Progressive
Bits/(Pixel*Frame)          : 0.274
Stream size                 : 6.80 GiB (94%)
Title                       : Монахиня / The Nun (2018) 1080p [CHD]
Writing library             : core 155 r2867+74 66b5600 t_mod_Custom_2 [[email protected] X86_64]
Encoding settings           : cabac=1 / ref=4 / deblock=1:-3:-3 / analyse=0x3:0x113 / me=umh / subme=10 / psy=1 / fade_compensate=0.00 / psy_rd=0.90:0.10 / mixed_ref=1 / me_range=48 / chroma_me=1 / trellis=2 / 8x8dct=1 / cqm=0 / deadzone=21,11 / fast_pskip=0 / chroma_qp_offset=-2 / threads=12 / lookahead_threads=2 / sliced_threads=0 / nr=0 / decimate=1 / interlaced=0 / bluray_compat=0 / constrained_intra=0 / fgo=0 / bframes=8 / b_pyramid=2 / b_adapt=2 / b_bias=0 / direct=3 / weightb=1 / open_gop=0 / weightp=2 / keyint=250 / keyint_min=23 / scenecut=40 / intra_refresh=0 / rc_lookahead=40 / rc=crf / mbtree=0 / crf=19.0000 / qcomp=0.70 / qpmin=0:0:0 / qpmax=69:69:69 / qpstep=4 / vbv_maxrate=35000 / vbv_bufsize=35000 / crf_max=0.0 / nal_hrd=none / filler=0 / ip_ratio=1.40 / pb_ratio=1.30 / aq=3:0.90 / aq-sensitivity=10.00 / aq-factor=1.00:1.00:1.00 / aq2=0 / aq3=2:[0.50:0.50]:[0.50:0.50]:[0.50:0.50]:[0.50:0.50] / aq3-sensitivity=10.00 / aq3-factor=[1.00:1.00]:[1.00:1.00]:[1.00:1.00] / aq3-boundary=192:64:24
Language                    : English
Default                     : Yes
Forced                      : No
Color range                 : Limited
Matrix coefficients         : BT.709

Audio #1
ID                          : 2
Format                      : AC-3
Format/Info                 : Audio Coding 3
Commercial name             : Dolby Digital
Codec ID                    : A_AC3
Duration                    : 1 h 36 min
Bit rate mode               : Constant
Bit rate                    : 192 kb/s
Channel(s)                  : 2 channels
Channel layout              : L R
Sampling rate               : 48.0 kHz
Frame rate                  : 31.250 FPS (1536 SPF)
Bit depth                   : 16 bits
Compression mode            : Lossy
Stream size                 : 133 MiB (2%)
Title                       : Dub [Postmodern, іТunеs] 2.0 192 Kbps
Language                    : Ukrainian
Service kind                : Complete Main
Default                     : Yes
Forced                      : Yes

Audio #2
ID                          : 3
Format                      : AC-3
Format/Info                 : Audio Coding 3
Commercial name             : Dolby Digital
Codec ID                    : A_AC3
Duration                    : 1 h 36 min
Bit rate mode               : Constant
Bit rate                    : 448 kb/s
Channel(s)                  : 6 channels
Channel layout              : L R C LFE Ls Rs
Sampling rate               : 48.0 kHz
Frame rate                  : 31.250 FPS (1536 SPF)
Bit depth                   : 16 bits
Compression mode            : Lossy
Stream size                 : 309 MiB (4%)
Title                       : Original, 5.1 448 Kbps
Language                    : English
Service kind                : Complete Main
Default                     : No
Forced                      : No

Text #1
ID                          : 4
Format                      : UTF-8
Codec ID                    : S_TEXT/UTF8
Codec ID/Info               : UTF-8 Plain Text
Duration                    : 1 h 35 min
Bit rate                    : 0 b/s
Count of elements           : 19
Stream size                 : 672 Bytes (0%)
Title                       : Ukr Forced [іТunes]
Language                    : Ukrainian
Default                     : Yes
Forced                      : Yes

Text #2
ID                          : 5
Format                      : UTF-8
Codec ID                    : S_TEXT/UTF8
Codec ID/Info               : UTF-8 Plain Text
Duration                    : 1 h 30 min
Bit rate                    : 30 b/s
Count of elements           : 639
Stream size                 : 20.4 KiB (0%)
Title                       : Eng Full
Language                    : English
Default                     : No
Forced                      : No

Text #3
ID                          : 6
Format                      : UTF-8
Codec ID                    : S_TEXT/UTF8
Codec ID/Info               : UTF-8 Plain Text
Duration                    : 1 h 35 min
Bit rate                    : 38 b/s
Count of elements           : 942
Stream size                 : 27.1 KiB (0%)
Title                       : Eng SDH
Language                    : English
Default                     : No
Forced                      : No

Menu
00:00:00.000                : en:00:00:00.000
00:08:42.772                : en:00:08:42.772
00:17:55.074                : en:00:17:55.074
00:29:17.506                : en:00:29:17.506
00:38:05.033                : en:00:38:05.033
00:48:49.802                : en:00:48:49.802
00:58:49.192                : en:00:58:49.192
01:09:16.944                : en:01:09:16.944
01:18:14.565                : en:01:18:14.565
01:24:18.637                : en:01:24:18.637
01:32:30.295                : en:01:32:30.295


Джерело: &

30.11.2018 реліз оновлено з до 'а


 Трекер:    Зареєстрований   

Завантажити / скачати фільм українською



відео для новачків



 Зареєстрований:   2018-11-30 20:03
 Розмір:   7.24 GB 
 Оцінка фільму:   8.4/10 (Голосів: 33)
 ЗАЛИШАЙТЕСЬ ЯКОМОГА ДОВШЕ НА РОЗДАЧІ! ЗАВАНТАЖИВ САМ - ДАЙ ЗАВАНТАЖИТИ ІНШИМ!
   
Інші релізи
   Монахиня / The Nun (2018) Remux 1080p Ukr/Eng | Sub Eng staf777  3 / 0   18.97 GB   2018-12-02 21:14 
   Монахиня / The Nun (2018) AVC Ukr/Eng | Sub Eng 11FrYkT  19 / 0   1.57 GB   2018-12-02 19:18 
   Монахиня / The Nun (2018) Ukr/Eng antik_2008  4 / 0   1.75 GB   2018-12-01 02:44 
   Монахиня / The Nun (2018) 720p Ukr/Eng | Sub Eng 11FrYkT  11 / 0   3.71 GB   2018-11-28 17:23 
repetitor1986 
Новенький


З нами з: 02.10.13
Востаннє: 28.03.19
Повідомлень: 9

2018-11-21 20:38  
Постер нереально крутий!
Kumcheg1995 
Частий відвідувач


З нами з: 05.01.17
Востаннє: 14.04.19
Повідомлень: 25

2018-11-22 17:28  
На початку і в кінці фільму кадри з фільму Астрал.. Фільм офігєнний, я шось подумав шо це продовження Астралу, але ні, це навіть кращє)
Maks Havar 
Новенький


З нами з: 30.11.14
Востаннє: 17.04.19
Повідомлень: 16

2018-11-22 22:10  
Хороший фільм. Явно не на один раз ! Було дійсно цікаво весь фільм.
vovang6 
Поважний учасник


З нами з: 27.08.12
Востаннє: 18.04.19
Повідомлень: 194

2018-11-23 10:35  
Ну що сказати, фільм не дуже сподобався... Задумка цікава але єлементи жахів тільки в скримерах, а хотілося більше. На 5/10.
Dr.S 
Свій


З нами з: 30.05.17
Востаннє: 19.04.19
Повідомлень: 89

2018-11-24 19:20  
Цікаво - кіно спонсорувала церква?
В цілому - мені не сподобалося Sad (1)

BorgirC 
Новенький


З нами з: 03.03.16
Востаннє: 19.04.19
Повідомлень: 1

2018-11-25 10:53  
Банально. Багато моментів були передбачувані. Сюжет висосаний з пальця. Повівся на хороші оцінку. 5/10
pegas 
Новенький


З нами з: 20.11.09
Востаннє: 18.04.19
Повідомлень: 5

2018-11-26 08:33  
Дану публікація можете переглянути в онлайн.
https://видалено, п.2.10
Цитата:
2. Правила та обмеження форуму
Всім без винятку заборонено:
...
2.10 Публікувати відкриті і приховані посилання в дописі і підписі на:
- файлообмінники, варезники, фтп та сторонні торрент-трекери, онлайн-бібліотеки, соціальні мережі,

Anonymous 







2018-11-30 20:04  
Реліз оновлено з до 'а

Додано через 39 секунд:

"золото" на тиждень для заохочення підтримки релізу

Ssaasshhaa_UA 
Новенький


З нами з: 21.10.12
Востаннє: 12.04.19
Повідомлень: 1

2019-01-20 17:17  
Kumcheg1995
не Астрал, а Закляття)

Siegfried 
Поважний учасник


З нами з: 01.11.11
Востаннє: 19.04.19
Повідомлень: 249

2019-03-04 14:52  
Ну що сказати?
В рази слабше за будь-яку частину «Закляття».
Видно продюсери склепали цей «хвільм» тільки заради мети заробити грошей на популярності попередніх картин.
Є декілька непоганих моментів, але загальну ситуацію вони не рятують.

Слабко і не варте уваги.

3.5/10

Ваш часовий пояс: GMT + 2 Години

Нова тема   Відповісти