22 милі / Mile 22 (2018) 1080p H.265 Ukr/Eng | Sub Eng

Нові коментарі

Нова тема   Відповісти
Автор Повідомлення
-Star-Lord- 
VIP


З нами з: 09.08.18
Востаннє: 25.05.19
Повідомлень: 782

2018-11-20 22:33  
22 милі / Mile 22 (2018) 1080p H.265 Ukr/Eng | Sub Eng

22 милі / Mile 22 (2018) 1080p H.265 Ukr/Eng | Sub Eng


Жанр: бойовик, трилер
Країна: США
Кінокомпанія: STX Entertainment, Closest to the Hole Productions, Film 44
Режисер: Пітер Берг
Актори: Марк Волберг, Лорен Кохен, Іко Вайс, Джон Малкович, Ронда Рауза, Карло Альбан, Сіель, Сем Медіна

Сюжет:
Привиди - елітний загін надсекретної розвідки: офіційно вони не існують, але насправді - реальні. Вони вирішують завдання, коли старі методи вже не працюють, і завжди домагаються поставленої мети. Суперагента загону, за підтримки ЦРУ чекає непроста місія: таємно вивести з Індонезії поліцейського, який володіє доказами корупції в вищих політичних колах. До рятівного літака вони мусять подолати 22 смертельно небезпечні милі.

Тривалість: 01:34:40
Якість:
Відео:
кодек: H.265 (HEVC)
розмір кадру: 1920 x 800
бітрейт: 5 479 кб/с
частота кадрів: 23.976 fps
біт піксель: 0.149 BPP (Bits Per Pixel)
бітова глибина: 10 біт
Увага! Перед завантаженням переконайтесь, що ваш пристрій відтворення (та/або ПЗ) підтримує H.265 (HEVC)

Аудіо # 1:
мова: українська
переклад: професійний дубльований
кодек: AC-3 2.0
бітрейт: 192 кб/с

Аудіо # 2:
мова: англійська
переклад: оригінал
кодек: AC-3 5.1
бітрейт: 448 кб/с

Субтитри # 1:
мова: англійська (Forced),
тип: програмні (м'які)
формат: *.srt

Субтитри # 2:
мова: англійська (Full),
тип: програмні (м'які)
формат: *.srt


Info
Код:
General
Unique ID                                : 316715879807336882065533122300585644833 (0xEE45427A487002C3E8DCDB214FE31321)
Complete name                            : G:\Video\Films\Mile 22 (2018) 1080p H.265 [UKR_ENG].
Format                                   :
Format version                           : Version 4 / Version 2
File size                                : 4.05 GiB
Duration                                 : 1 h 34 min
Overall bit rate                         : 6 122 kb/s
Movie name                               : Mile 22 (2018)
Encoded date                             : UTC 2018-11-19 22:10:49
Writing application                      : v20.0.0 ('I Am The Sun') 32-bit
Writing library                          : libebml v1.3.5 + v1.4.8
Cover                                    : Yes
Attachments                              : Cover.jpg

Video
ID                                       : 1
Format                                   : HEVC
Format/Info                              : High Efficiency Video Coding
Codec ID                                 : V_MPEGH/ISO/HEVC
Duration                                 : 1 h 34 min
Bit rate                                 : 5 479 kb/s
Width                                    : 1 920 pixels
Height                                   : 800 pixels
Display aspect ratio                     : 2.40:1
Frame rate mode                          : Constant
Frame rate                               : 23.976 (24000/1001) FPS
Color space                              : YUV
Chroma subsampling                       : 4:2:0
Bit depth                                : 10 bits
Bits/(Pixel*Frame)                       : 0.149
Stream size                              : 3.62 GiB (90%)
Title                                    : Mile 22 (2018)
Writing library                          : x265 2.8+74-fd517ae68f93:[Windows][GCC 7.3.0][64 bit] 10bit
Encoding settings                        : cpuid=1111039 / frame-threads=13 / numa-pools=12 / wpp / no-pmode / no-pme / no-psnr / no-ssim / log-level=3 / input-csp=1 / input-res=1920x800 / interlace=0 / total-frames=0 / level-idc=41 / high-tier=1 / uhd-bd=0 / ref=7 / allow-non-conformance / no-repeat-headers / annexb / no-aud / no-hrd / info / hash=0 / no-temporal-layers / no-open-gop / min-keyint=24 / keyint=240 / gop-lookahead=0 / bframes=9 / b-adapt=2 / b-pyramid / bframe-bias=0 / rc-lookahead=40 / lookahead-slices=5 / scenecut=40 / radl=0 / no-intra-refresh / ctu=64 / min-cu-size=8 / rect / amp / max-tu-size=32 / tu-inter-depth=1 / tu-intra-depth=1 / limit-tu=0 / rdoq-level=0 / dynamic-rd=0.00 / no-ssim-rd / signhide / no-tskip / nr-intra=0 / nr-inter=0 / no-constrained-intra / no-strong-intra-smoothing / max-merge=2 / limit-refs=3 / no-limit-modes / me=3 / subme=7 / merange=57 / temporal-mvp / weightp / no-weightb / no-analyze-src-pics / deblock=-2:-2 / no-sao / no-sao-non-deblock / rd=3 / no-early-skip / rskip / no-fast-intra / no-tskip-fast / no-cu-lossless / no-b-intra / no-splitrd-skip / rdpenalty=0 / psy-rd=2.00 / psy-rdoq=0.00 / no-rd-refine / no-lossless / cbqpoffs=0 / crqpoffs=0 / rc=crf / crf=18.0 / qcomp=0.70 / qpstep=4 / stats-write=0 / stats-read=0 / vbv-maxrate=50000 / vbv-bufsize=50000 / vbv-init=0.9 / crf-max=0.0 / crf-min=0.0 / ipratio=1.40 / pbratio=1.30 / aq-mode=1 / aq-strength=1.00 / cutree / zone-count=0 / no-strict-cbr / qg-size=32 / no-rc-grain / qpmax=69 / qpmin=0 / no-const-vbv / sar=1 / overscan=0 / videoformat=5 / range=0 / colorprim=1 / transfer=1 / colormatrix=1 / chromaloc=0 / display-window=0 / max-cll=0,0 / min-luma=0 / max-luma=1023 / log2-max-poc-lsb=8 / vui-timing-info / vui-hrd-info / slices=1 / no-opt-qp-pps / no-opt-ref-list-length-pps / no-multi-pass-opt-rps / scenecut-bias=0.05 / no-opt-cu-delta-qp / no-aq-motion / no-hdr / no-hdr-opt / no-dhdr10-opt / no-idr-recovery-sei / analysis-reuse-level=5 / scale-factor=0 / refine-intra=0 / refine-inter=0 / refine-mv=0 / no-limit-sao / ctu-info=0 / no-lowpass-dct / refine-mv-type=0 / copy-pic=1 / max-ausize-factor=1.0 / no-dynamic-refine / no-single-sei
Language                                 : English
Default                                  : Yes
Forced                                   : No
Color range                              : Limited
Color primaries                          : BT.709
Transfer characteristics                 : BT.709
Matrix coefficients                      : BT.709

Audio #1
ID                                       : 2
Format                                   : AC-3
Format/Info                              : Audio Coding 3
Codec ID                                 : A_AC3
Duration                                 : 1 h 34 min
Bit rate mode                            : Constant
Bit rate                                 : 192 kb/s
Channel(s)                               : 2 channels
Channel positions                        : Front: L R
Sampling rate                            : 48.0 kHz
Frame rate                               : 31.250 FPS (1536 SPF)
Bit depth                                : 16 bits
Compression mode                         : Lossy
Stream size                              : 130 MiB (3%)
Title                                    : ПД - Megogo
Language                                 : Ukrainian
Service kind                             : Complete Main
Default                                  : Yes
Forced                                   : No

Audio #2
ID                                       : 3
Format                                   : AC-3
Format/Info                              : Audio Coding 3
Codec ID                                 : A_AC3
Duration                                 : 1 h 34 min
Bit rate mode                            : Constant
Bit rate                                 : 448 kb/s
Channel(s)                               : 6 channels
Channel positions                        : Front: L C R, Side: L R, LFE
Sampling rate                            : 48.0 kHz
Frame rate                               : 31.250 FPS (1536 SPF)
Bit depth                                : 16 bits
Compression mode                         : Lossy
Stream size                              : 303 MiB (7%)
Title                                    : Original
Language                                 : English
Service kind                             : Complete Main
Default                                  : No
Forced                                   : No

Text #1
ID                                       : 4
Format                                   : UTF-8
Codec ID                                 : S_TEXT/UTF8
Codec ID/Info                            : UTF-8 Plain Text
Duration                                 : 1 h 26 min
Bit rate                                 : 77 b/s
Count of elements                        : 1584
Stream size                              : 49.6 KiB (0%)
Title                                    : Forced
Language                                 : English
Default                                  : Yes
Forced                                   : No

Text #2
ID                                       : 5
Format                                   : UTF-8
Codec ID                                 : S_TEXT/UTF8
Codec ID/Info                            : UTF-8 Plain Text
Duration                                 : 2 min 18 s
Bit rate                                 : 114 b/s
Count of elements                        : 60
Stream size                              : 1.93 KiB (0%)
Title                                    : Full
Language                                 : English
Default                                  : No
Forced                                   : No

Menu
00:00:00.000                             : :Глава 1
00:08:27.924                             : :Глава 2
00:18:54.091                             : :Глава 3
00:28:15.610                             : :Глава 4
00:36:43.242                             : :Глава 5
00:44:27.539                             : :Глава 6
00:52:11.711                             : :Глава 7
01:01:12.502                             : :Глава 8
01:08:01.869                             : :Глава 9
01:17:45.952                             : :Глава 10
01:26:02.323                             : :Глава 11
01:32:08.898                             : :Глава 12
Світлини




Джерело:
Особиста оцінка: 0 - не дивився


>>> Усі мої релізи <<<



 Трекер:    Зареєстрований   

Завантажити / скачати фільм українською



відео для новачків



 Зареєстрований:   2018-11-20 22:33
 Розмір:   4.05 GB 
 Оцінка фільму:   9.6/10 (Голосів: 15)
   
Інші релізи
   22 милі / Mile 22 (2018) 1080p Ukr/Eng | Sub Eng staf777  16 / 0   11.12 GB   2019-01-30 13:16 
   22 милі / Mile 22 (2018) AVC Ukr/Eng | Sub Eng 11FrYkT  35 / 3   1.7 GB   2018-11-22 20:50 
   22 милі / Mile 22 (2018) uafilm.tv  23 / 0   1.29 GB   2018-11-20 23:41 
   22 милі / Mile 22 (2018) Remux 1080p Ukr/Eng | Sub Eng kryk-v.ya.  14 / 0   22.1 GB   2018-11-15 22:43 
   22 милі / Mile 22 (2018) 720p Ukr/Eng | Sub Eng радик  32 / 0   2.45 GB   2018-10-24 10:17 
Відьмачечок 
Свій


З нами з: 17.05.11
Востаннє: 21.05.19
Повідомлень: 107

2018-11-28 00:34  
Чудова стрічка. Жорстко, без шмарклів, хоч ідея з перевезенням цінного свідка/агента/в'язня не нова, але в даному випадку чудово обіграна.
Ваш часовий пояс: GMT + 2 Години

Нова тема   Відповісти