Останній поцілунок / The Last Kiss (2006) 720p Ukr/Eng | Sub Eng

Нові коментарі

Нова тема   Відповісти
Автор Повідомлення
staf777 
Відео Гуртом - підтримка та поширення
Відео Гуртом - підтримка та поширення


З нами з: 16.11.16
Востаннє: 26.08.19
Повідомлень: 2743

2018-11-20 12:46  
Останній поцілунок / The Last Kiss (2006) 720p Ukr/Eng | Sub Eng

Останній поцілунок / The Last Kiss (2006) 720p Ukr/Eng | Sub Eng


Жанр: комедія, драма, мелодрама
Країна: США



Кінокомпанія: Lakeshore Entertainment
Режисер: Тоні Голдвін
Актори: Зак Бреф, Джасінда Берет, Рейчел Білсон, Ерік Крістіан Олсен, Кейсі Афлек, Блайт Денер, Том Вілкінсон, Ларі Дей

Сюжет:
Майклу та його приятелям вже по 30. І кожен вже має все, про що мріяв. От тільки по-справжньому дорослішати вони не бажають. Послати останній поцілунок своєму безтурботному життю їх може змусити тільки справжнє, світле почуття. І цього разу вони не мають права на помилку...


Тривалість: 01:43:50
Якість: 720p
Відео:
кодек:
розмір кадру: 1280x534
бітрейт: 4481 кб/с

Аудіо # 1:
мова: українська
переклад: багатоголосий закадровий
кодек: 5.1
бітрейт: 448 кб/с

Аудіо # 2:
мова: англійська
переклад: оригінал
кодек: 5.1
бітрейт: 640 кб/с

Субтитри:
мова: англійська
тип: програмні (м'які)
формат: *.srt
Info
General
Unique ID : 252981379386659033699806887902833823249 (0xBE5270FF26FE8216B6FE75BB89A44E11)
Complete name : N:\Фільми HD\Комедія\The Last Kiss (2006) 720p [UKR][ENG][Hurtom].
Format :
Format version : Version 4 / Version 2
File size : 4.04 GiB
Duration : 1 h 43 min
Overall bit rate : 5 569 kb/s
Movie name : The Last Kiss (2006) 720p [UKR][ENG][Hurtom]
Encoded date : UTC 2018-11-20 09:03:49
Writing application : v24.0.0 ('Beyond The Pale') 64-bit
Writing library : libebml v1.3.6 + v1.4.9
Cover : Yes
Attachments : cover.jpg

Video
ID : 1
Format : AVC
Format/Info : Advanced Video Codec
Format profile : [email protected]
Format settings : CABAC / 7 Ref Frames
Format settings, CABAC : Yes
Format settings, ReFrames : 7 frames
Codec ID : V_MPEG4/ISO/AVC
Duration : 1 h 43 min
Bit rate : 4 481 kb/s
Width : 1 280 pixels
Height : 534 pixels
Display aspect ratio : 2.40:1
Frame rate mode : Constant
Frame rate : 23.976 FPS
Color space : YUV
Chroma subsampling : 4:2:0
Bit depth : 8 bits
Scan type : Progressive
Bits/(Pixel*Frame) : 0.273
Stream size : 3.25 GiB (80%)
Writing library : core 100 r1659kMod 57b2e56
Encoding settings : cabac=1 / ref=7 / deblock=1:-3:-3 / analyse=0x3:0x133 / me=esa / subme=9 / psy=1 / psy_rd=1.00:0.00 / mixed_ref=1 / me_range=24 / chroma_me=1 / trellis=2 / 8x8dct=1 / cqm=0 / deadzone=21,11 / fast_pskip=0 / chroma_qp_offset=-2 / threads=3 / sliced_threads=0 / nr=0 / decimate=1 / interlaced=0 / constrained_intra=0 / bframes=6 / b_pyramid=2 / b_adapt=2 / b_bias=0 / direct=3 / weightb=1 / open_gop=0 / weightp=2 / keyint=250 / keyint_min=25 / scenecut=40 / intra_refresh=0 / rc_lookahead=40 / rc=2pass / mbtree=1 / bitrate=4481 / ratetol=1.0 / qcomp=0.60 / qpmin=10 / qpmax=51 / qpstep=4 / cplxblur=20.0 / qblur=0.5 / ip_ratio=1.40 / aq=2:1.00
Language : English
Default : No
Forced : No

Audio #1
ID : 2
Format : AC-3
Format/Info : Audio Coding 3
Codec ID : A_AC3
Duration : 1 h 43 min
Bit rate mode : Constant
Bit rate : 448 kb/s
Channel(s) : 6 channels
Channel positions : Front: L C R, Side: L R, LFE
Sampling rate : 48.0 kHz
Frame rate : 31.250 FPS (1536 SPF)
Bit depth : 16 bits
Compression mode : Lossy
Stream size : 333 MiB (8%)
Title : [UKR-MVO]
Language : Ukrainian
Service kind : Complete Main
Default : Yes
Forced : Yes

Audio #2
ID : 3
Format : AC-3
Format/Info : Audio Coding 3
Codec ID : A_AC3
Duration : 1 h 43 min
Bit rate mode : Constant
Bit rate : 640 kb/s
Channel(s) : 6 channels
Channel positions : Front: L C R, Side: L R, LFE
Sampling rate : 48.0 kHz
Frame rate : 31.250 FPS (1536 SPF)
Bit depth : 16 bits
Compression mode : Lossy
Stream size : 475 MiB (11%)
Language : English
Service kind : Complete Main
Default : No
Forced : No

Text
ID : 4
Format : UTF-8
Codec ID : S_TEXT/UTF8
Codec ID/Info : UTF-8 Plain Text
Duration : 1 h 39 min
Bit rate : 64 b/s
Count of elements : 1370
Stream size : 47.0 KiB (0%)
Language : English
Default : No
Forced : No
Скріншоти





Подяка tarick за запис звуку та за виготовлення україномовної звукової доріжки, а також за українізацію постера.
Джерело: &
Особиста оцінка: 8 - мені сподобалося
Останній поцілунок / The Last Kiss (2006) 720p Ukr/Eng | Sub Eng Останній поцілунок / The Last Kiss (2006) 720p Ukr/Eng | Sub Eng


 Трекер:    Зареєстрований   

Завантажити / скачати фільм українською



відео для новачків



 Зареєстрований:   2018-11-20 12:46
 Розмір:   4.04 GB 
 Оцінка фільму:   7.8/10 (Голосів: 4)
   
Інші релізи
   Останній поцілунок / The Last Kiss (2006) Snooppy  2 / 0   1.46 GB   2010-04-14 19:25 
0mage0 
VIP


З нами з: 06.10.15
Востаннє: 26.08.19
Повідомлень: 481

2018-12-08 10:11  
Жіночий фільм, дивитися можна Happy
Ваш часовий пояс: GMT + 2 Години

Нова тема   Відповісти