Закусочна на колесах / Wheels on Meals / Kuai can che (1984) 1080p 3xUkr/Chi

Нові коментарі

Нова тема   Відповісти
Автор Повідомлення
Anonymous 







2018-11-19 23:22  
Закусочна на колесах / Wheels on Meals / Kuai can che (1984) 1080p 3xUkr/Chi

Закусочна на колесах / Wheels on Meals / Kuai can che (1984) 1080p 3xUkr/Chi


Жанр: бойовик, комедія
Країна: Гонконг, Іспанія



Кінокомпанія: Golden Harvest Company
Режисер: Саммо Хунг Кам-Бо
Актори: Джекі Чан, Саммо Хунг Кам-Бо, Юень Бяо, Лола Форнер, Бенні Уркідез, Кіт Віталі, Херб Едельман

Сюжет:
У цьому кумедному комедійному бойовику Джекі Чан разом зі своїм другом працюють в закусочній на колесах - у них мікроавтобус, з якого вони продають їжу та напої. Обидва вони чудово володіють кунг-фу і можуть дати відсіч як хуліганам-рокерам, так й іншим лиходіям. Сюжетна лінія будується навколо дівчинки, яку не можуть знайти вже 20 років, і для цього тепер наймається шахраюватий приватний детектив. У ці інтриги вплутуються і наші герої.


Тривалість: 01:48:32
Якість:
Відео:
кодек:
розмір кадру: 1920х 1036
бітрейт: 10400 кб/с

Аудіо # 1:

мова: українська
переклад: багатоголосий закадровий
кодек: 5.1
бітрейт: 384 кб/с

Аудіо # 2:
мова: українська
переклад: багатоголосий закадровий
кодек: 5.1
бітрейт: 384 кб/с

Аудіо # 3:
мова: українська
переклад: багатоголосий закадровий
кодек: 2.0
бітрейт: 192 кб/с

Аудіо # 4:
мова: китайська
переклад: оригінал
кодек: 5.1
бітрейт: 640 кб/с

Субтитри:
мова: англійська
тип: програмні (м'які)
формат: *.srt
Info
General
Unique ID : 320898992924948335822244018955518871142 (0xF16AE5E0B14C755AFE17CD55DCA20666)
Complete name : E:\films\Wheels on Meals (1984) 1080p [3xUkr.Chi] Hurtom.
Format :
Format version : Version 4 / Version 2
File size : 9.10 GiB
Duration : 1 h 48 min
Overall bit rate : 12.0 Mb/s
Movie name : Закусочна на колесах / Wheels on Meals / Kuai can che (1984) 3xUkr/Chi
Encoded date : UTC 2018-11-19 20:47:36
Writing application : v21.0.0 ('Tardigrades Will Inherit The Earth') 64-bit
Writing library : libebml v1.3.5 + v1.4.8

Video
ID : 1
Format : AVC
Format/Info : Advanced Video Codec
Format profile : [email protected]
Format settings, CABAC : Yes
Format settings, ReFrames : 4 frames
Codec ID : V_MPEG4/ISO/AVC
Duration : 1 h 48 min
Bit rate : 10.4 Mb/s
Width : 1 920 pixels
Height : 1 036 pixels
Display aspect ratio : 1.85:1
Frame rate mode : Constant
Frame rate : 23.976 FPS
Color space : YUV
Chroma subsampling : 4:2:0
Bit depth : 8 bits
Scan type : Progressive
Bits/(Pixel*Frame) : 0.218
Stream size : 7.89 GiB (87%)
Title : Закусочна на колесах / Wheels on Meals / Kuai can che (1984) 3xUkr/Chi
Writing library : core 115 r1947+532 361db68
Encoding settings : cabac=1 / ref=4 / deblock=1:-3:-3 / analyse=0x3:0x113 / me=umh / subme=9 / psy=1 / fade_compensate=0.00 / psy_rd=1.05:0.10 / mixed_ref=1 / me_range=32 / chroma_me=1 / trellis=2 / 8x8dct=1 / cqm=2 / deadzone=21,11 / fast_pskip=0 / chroma_qp_offset=-2 / threads=12 / sliced_threads=0 / nr=0 / decimate=1 / interlaced=0 / bluray_compat=0 / constrained_intra=0 / fgo=0 / bframes=6 / b_pyramid=2 / b_adapt=2 / b_bias=0 / direct=3 / weightb=1 / open_gop=0 / weightp=2 / keyint=250 / keyint_min=23 / scenecut=40 / intra_refresh=0 / rc_lookahead=60 / rc=2pass / mbtree=1 / bitrate=10400 / ratetol=2.0 / qcomp=0.70 / qpmin=1 / qpmax=63 / qpstep=4 / cplxblur=20.0 / qblur=0.5 / vbv_maxrate=40000 / vbv_bufsize=30000 / nal_hrd=none / ip_ratio=1.40 / aq=1:0.90
Language : Chinese
Default : No
Forced : Yes

Audio #1
ID : 2
Format : AC-3
Format/Info : Audio Coding 3
Mode extension : CM (complete main)
Format settings, Endianness : Big
Codec ID : A_AC3
Duration : 1 h 48 min
Bit rate mode : Constant
Bit rate : 384 kb/s
Channel(s) : 6 channels
Channel positions : Front: L C R, Side: L R, LFE
Sampling rate : 48.0 kHz
Frame rate : 31.250 FPS (1536 spf)
Bit depth : 16 bits
Compression mode : Lossy
Stream size : 298 MiB (3%)
Title : TRK Ukraine
Language : Ukrainian
Default : Yes
Forced : No

Audio #2
ID : 3
Format : AC-3
Format/Info : Audio Coding 3
Mode extension : CM (complete main)
Format settings, Endianness : Big
Codec ID : A_AC3
Duration : 1 h 48 min
Bit rate mode : Constant
Bit rate : 384 kb/s
Channel(s) : 6 channels
Channel positions : Front: L C R, Side: L R, LFE
Sampling rate : 48.0 kHz
Frame rate : 31.250 FPS (1536 spf)
Bit depth : 16 bits
Compression mode : Lossy
Stream size : 298 MiB (3%)
Title : 1+1
Language : Ukrainian
Default : No
Forced : No

Audio #3
ID : 4
Format : AC-3
Format/Info : Audio Coding 3
Mode extension : CM (complete main)
Format settings, Endianness : Big
Codec ID : A_AC3
Duration : 1 h 48 min
Bit rate mode : Constant
Bit rate : 192 kb/s
Channel(s) : 2 channels
Channel positions : Front: L R
Sampling rate : 48.0 kHz
Frame rate : 31.250 FPS (1536 spf)
Bit depth : 16 bits
Compression mode : Lossy
Stream size : 149 MiB (2%)
Title : NTN
Language : Ukrainian
Default : No
Forced : No

Audio #4
ID : 5
Format : AC-3
Format/Info : Audio Coding 3
Mode extension : CM (complete main)
Format settings, Endianness : Big
Codec ID : A_AC3
Duration : 1 h 48 min
Bit rate mode : Constant
Bit rate : 640 kb/s
Channel(s) : 6 channels
Channel positions : Front: L C R, Side: L R, LFE
Sampling rate : 48.0 kHz
Frame rate : 31.250 FPS (1536 spf)
Bit depth : 16 bits
Compression mode : Lossy
Stream size : 496 MiB (5%)
Title : Cantonese TrueHD core 5.1 640Kbps
Language : Chinese
Default : No
Forced : No

Text
ID : 6
Format : UTF-8
Codec ID : S_TEXT/UTF8
Codec ID/Info : UTF-8 Plain Text
Duration : 1 h 45 min
Bit rate : 39 b/s
Count of elements : 1415
Stream size : 30.6 KiB (0%)
Language : English
Default : No
Forced : No
Скріншоти









Джерело: &

Постер і аудідоріжки взяв звідси https://toloka.to/t9627-30


Срібний реліз (на рейтинг впливає 50% завантаженого)
 Трекер:    Зареєстрований   

Завантажити / скачати фільм українською



відео для новачків



 Зареєстрований:   2018-11-19 23:22
 Розмір:   9.1 GB 
 Оцінка фільму:   10/10 (Голосів: 12)
   
Інші релізи
takispravi 
Свій


З нами з: 24.10.13
Востаннє: 12.12.19
Повідомлень: 63

2018-11-23 09:51  
свого часу у відеосалоні на ламповому телевізорі із "одноголосим перекладом із закритим носом" - фільм був просто неймовірний. мабуть, з того часу я виріс Rolleyes (4)
K2 
Поважний учасник


З нами з: 02.11.08
Востаннє: 12.12.19
Повідомлень: 227

2019-02-10 19:05  
Фільм класний і на сьогоднішній день. Джекі на піку форми. Ностальгічний.
Oleksa9 
VIP


З нами з: 17.05.12
Востаннє: 12.12.19
Повідомлень: 386

2019-03-07 06:18  
1+1:
"закусочна"...
"часний" детектив...
щьо, щє...
"ти правий" -> твоя правда, маєш рацію тощо
зловили -> злапали

Ваш часовий пояс: GMT + 2 Години

Нова тема   Відповісти