Метод Комінськи (Сезон 1) / The Kominsky Method (Season 1) (2018) 1080p Ukr/Eng

Нові коментарі

Нова тема   Відповісти
Автор Повідомлення
DniproFilm 
VIP


З нами з: 10.10.18
Востаннє: 17.08.19
Повідомлень: 258

2018-11-19 23:50  
Метод Комінськи (Сезон 1) / The Kominsky Method (Season 1) (2018) 1080р Ukr/Eng

Метод Комінськи (Сезон 1) / The Kominsky Method (Season 1) (2018) 1080p Ukr/Eng


Жанр: комедія
Країна: США


Кінокомпанія / телеканал: Chuck Lorre Productions, Netflix, Warner Bros. Television

Режисер: Чак Лорі, Дональд Пітрі, Енді Теннант
Актори/ролі озвучують: Алан Аркін, Сара Бейкер, Майкл Дуглас, Ненсі Тревіс, Джена Лінг, Дені ДеВіто, Грехем Роджерс та інші

Сюжет:
Старіючий актор, що колись був славетним та купався у роскоші, нині заробляє на життя, навчаючи студентів акторської майстерності за методом, який він назвав у свою честь - "Метод Комінськи".


Тривалість: 1 серія: ~ 30 хв. (цілком серій: 8)
Перелік серій

1. Chapter 1: An Actor Avoids
2. Chapter 2: An Agent Grieves
3. Chapter 3: A Prostate Enlarges
4. Chapter 4: A Kegel Squeaks
5. Chapter 5: An Agent Crowns
6. Chapter 6: A Daughter Detoxes
7. Chapter 7: A String Is Attached
8. Chapter 8: A Widow Approaches
Якість:
Відео:
кодек:
розмір кадру: 1920x960
бітрейт: ~7000 кб/с

Аудіо # 1:
мова: українська
переклад: багатоголосий закадровий
кодек: 5.1
бітрейт: 384 кб/с

Аудіо # 2:
мова: англійська
переклад: оригінал
кодек: 5.1
бітрейт: 640 кб/с

Джерело озвучення:
DniproFilm
Info

Video
ID : 1
Format : AVC
Format/Info : Advanced Video Codec
Format profile : [email protected]
Format settings : CABAC / 4 Ref Frames
Format settings, CABAC : Yes
Format settings, ReFrames : 4 frames
Codec ID : V_MPEG4/ISO/AVC
Duration : 33 min 56 s
Bit rate : 6 765 kb/s
Width : 1 920 pixels
Height : 960 pixels
Display aspect ratio : 2.000
Frame rate mode : Constant
Frame rate : 23.976 (24000/1001) FPS
Standard : NTSC
Color space : YUV
Chroma subsampling : 4:2:0
Bit depth : 8 bits
Scan type : Progressive
Bits/(Pixel*Frame) : 0.153
Stream size : 1.60 GiB (87%)
Language : English
Default : Yes
Forced : No
Color range : Limited
Color primaries : BT.709
Transfer characteristics : BT.709
Matrix coefficients : BT.709

Audio #1
ID : 2
Format : AC-3
Format/Info : Audio Coding 3
Commercial name : Dolby Digital
Codec ID : A_AC3
Duration : 33 min 56 s
Bit rate mode : Constant
Bit rate : 384 kb/s
Channel(s) : 6 channels
Channel positions : Front: L C R, Side: L R, LFE
Sampling rate : 48.0 kHz
Frame rate : 31.250 FPS (1536 SPF)
Bit depth : 16 bits
Compression mode : Lossy
Stream size : 93.2 MiB (5%)
Title : DniproFilm
Language : Ukrainian
Service kind : Complete Main
Default : Yes
Forced : No

Audio #2
ID : 3
Format : AC-3
Format/Info : Audio Coding 3
Codec ID : A_AC3
Duration : 33 min 25 s
Bit rate : 640 kb/s
Channel(s) : 6 channels
Sampling rate : 48.0 kHz
Frame rate : 31.250 FPS (1536 SPF)
Compression mode : Lossy
Stream size : 153 MiB (8%)
Language : English
Default : No
Forced : No
Скріншоти

Увага, присутня відео та аудіореклама.


Джерело: DniproFilm


Авторський реліз (завантажувати можна без реєстрації)
 Трекер:    Зареєстрований   

Завантажити / скачати серіал українською



відео для новачків



 Зареєстрований:   2018-11-20 18:26
 Розмір:   11.38 GB 
 Оцінка серіалу:   10/10 (Голосів: 8)
   
DniproFilm 
VIP


З нами з: 10.10.18
Востаннє: 17.08.19
Повідомлень: 258

2018-11-20 18:33  
(20.11.2018) Резіл оновлено. Додано 7-8 серії (фінал сезону).

Cartwright 
Поважний учасник


З нами з: 23.03.13
Востаннє: 17.08.19
Повідомлень: 230

2018-11-22 01:05  
Таке відчуття, що самі Месники зібралися озвучувати серіали (ну ви зрозуміли про що я).
yalexx 
Новенький


З нами з: 14.10.12
Востаннє: 10.08.19
Повідомлень: 11

2019-08-05 23:39  
станьте на роздачу бдлска
Ваш часовий пояс: GMT + 2 Години

Нова тема   Відповісти