Грім у тропіках [Розширена версія] / Tropic Thunder [Unrated Director's Cut] (2008) AVC Ukr/Eng | Sub Ukr/Eng

Нові коментарі

Нова тема   Відповісти
Автор Повідомлення
staf777 
Відео Гуртом - підтримка та поширення
Відео Гуртом - підтримка та поширення


З нами з: 16.11.16
Востаннє: 22.10.19
Повідомлень: 2993

2018-11-19 23:12  
Грім у тропіках [Розширена версія] / Tropic Thunder [Unrated Director's Cut] (2008) AVC Ukr/Eng | Sub Ukr/Eng

Грім у тропіках [Розширена версія] / Tropic Thunder [Unrated Director's Cut] (2008) AVC Ukr/Eng | Sub Ukr/Eng


Жанр: бойовик, комедія
Країна: США, Велика Британія, Німеччина



Кінокомпанія: DreamWorks SKG, Red Hour Films, Goldcrest Pictures
Режисер: Бен Стілер (Ben Stiller)
Актори: Джеф Кан (Jeff Kahn), Роберт Дауні-молодший (Robert Downey Jr.), Ентоні Руйвівар (Anthony Ruivivar), Джек Блeк (Jack Black), Джей Барушель (Jay Baruchel), Брендон Т. Джексон (Brandon T. Jackson), Бен Стіллер (Ben Stiller), Ерік Вінзенрід (Eric Winzenried), Стів Куган (Steve Coogan), Валері Езлінн (Valerie Azlynn), Мет Левін (Matt Levin), Девід Пресман (David Pressman), Емі Стіллер (Amy Stiller), Денні МакБрайд (Danny McBride), Демпсі Сілва (Dempsey Silva)

Сюжет:
У джунглях йдуть зйомки високобюджетного бойовика, головні ролі в якому виконують зірка екшн Тагг Спідмен (Стіллер), комік Джефф (Блек), лауреат усіх можливих премій Кірк Лазарус (Дауні-мол.), який спеціально для ролі негра перефарбував шкіру, та темношкірий репер Альпа Чіно. Сюрпризи починаються, коли невдоволений режисер вирішує зняти “справжній” фільм про війну...


Тривалість: 02:01:08
Якість: AVC
Відео:
кодек:
розмір кадру: 1024x436
бітрейт: 3050 кб/с

Аудіо # 1:
мова: українська
переклад: професійний дубльований з вставками оригіналу
кодек: 5.1
бітрейт: 448 кб/с

Аудіо # 2:
мова: англійська
переклад: оригінал
кодек: 5.1
бітрейт: 448 кб/с

Джерело озвучення:


Субтитри: (форсовані - на розширені моменти) (переклад виконано з оригіналу) + (повні)
мова: українська
тип: програмні (м'які)
формат: *.srt

Субтитри:
мова: англійська
тип: програмні (м'які)
формат: *.srt






MI
General
Unique ID : 218716989934500768171799810758226074722 (0xA48B5C2AABCEBBD5ACC42F287765DC62)
Complete name : N:\Фільми AVC\Комедія\Tropic Thunder [Unrated Director's Cut] (2008) AVC [UKR][ENG][Hurtom].
Format :
Format version : Version 4 / Version 2
File size : 3.34 GiB
Duration : 2 h 1 min
Overall bit rate : 3 947 kb/s
Movie name : Tropic Thunder [Unrated Director's Cut] (2008) AVC [UKR][ENG][Hurtom]
Encoded date : UTC 2018-11-19 19:38:10
Writing application : v24.0.0 ('Beyond The Pale') 64-bit
Writing library : libebml v1.3.6 + v1.4.9
Cover : Yes
Attachments : cover.jpg

Video
ID : 1
Format : AVC
Format/Info : Advanced Video Codec
Format profile : [email protected]
Format settings : CABAC / 8 Ref Frames
Format settings, CABAC : Yes
Format settings, ReFrames : 8 frames
Codec ID : V_MPEG4/ISO/AVC
Duration : 2 h 1 min
Bit rate : 3 050 kb/s
Width : 1 024 pixels
Height : 436 pixels
Display aspect ratio : 2.35:1
Frame rate mode : Constant
Frame rate : 23.976 (24000/1001) FPS
Color space : YUV
Chroma subsampling : 4:2:0
Bit depth : 8 bits
Scan type : Progressive
Bits/(Pixel*Frame) : 0.285
Stream size : 2.58 GiB (77%)
Writing library : core 148 r2638 7599210
Encoding settings : cabac=1 / ref=8 / deblock=1:-3:-3 / analyse=0x3:0x133 / me=umh / subme=9 / psy=1 / psy_rd=0.99:0.00 / mixed_ref=1 / me_range=64 / chroma_me=1 / trellis=2 / 8x8dct=1 / cqm=0 / deadzone=21,11 / fast_pskip=1 / chroma_qp_offset=-2 / threads=11 / lookahead_threads=2 / sliced_threads=0 / nr=0 / decimate=0 / interlaced=0 / bluray_compat=0 / constrained_intra=0 / bframes=11 / b_pyramid=2 / b_adapt=2 / b_bias=0 / direct=3 / weightb=1 / open_gop=0 / weightp=2 / keyint=240 / keyint_min=23 / scenecut=40 / intra_refresh=0 / rc_lookahead=60 / rc=2pass / mbtree=0 / bitrate=3050 / ratetol=1.0 / qcomp=0.70 / qpmin=0 / qpmax=69 / qpstep=4 / cplxblur=20.0 / qblur=0.5 / vbv_maxrate=50000 / vbv_bufsize=50000 / nal_hrd=none / filler=0 / ip_ratio=1.40 / pb_ratio=1.30 / aq=1:1.00
Language : English
Default : Yes
Forced : Yes
Color range : Limited
Matrix coefficients : BT.709

Audio #1
ID : 2
Format : AC-3
Format/Info : Audio Coding 3
Codec ID : A_AC3
Duration : 2 h 1 min
Bit rate mode : Constant
Bit rate : 448 kb/s
Channel(s) : 6 channels
Channel positions : Front: L C R, Side: L R, LFE
Sampling rate : 48.0 kHz
Frame rate : 31.250 FPS (1536 SPF)
Bit depth : 16 bits
Compression mode : Lossy
Stream size : 388 MiB (11%)
Title : [UKR-DUB-DVD]
Language : Ukrainian
Service kind : Complete Main
Default : Yes
Forced : Yes

Audio #2
ID : 3
Format : AC-3
Format/Info : Audio Coding 3
Codec ID : A_AC3
Duration : 2 h 1 min
Bit rate mode : Constant
Bit rate : 448 kb/s
Channel(s) : 6 channels
Channel positions : Front: L C R, Side: L R, LFE
Sampling rate : 48.0 kHz
Frame rate : 31.250 FPS (1536 SPF)
Bit depth : 16 bits
Compression mode : Lossy
Stream size : 388 MiB (11%)
Language : English
Service kind : Complete Main
Default : No
Forced : No

Text #1
ID : 4
Format : UTF-8
Codec ID : S_TEXT/UTF8
Codec ID/Info : UTF-8 Plain Text
Duration : 1 h 55 min
Bit rate : 117 b/s
Count of elements : 1855
Stream size : 99.5 KiB (0%)
Language : Ukrainian
Default : No
Forced : No

Text #2
ID : 5
Format : UTF-8
Codec ID : S_TEXT/UTF8
Codec ID/Info : UTF-8 Plain Text
Duration : 1 h 55 min
Bit rate : 22 b/s
Count of elements : 305
Stream size : 19.1 KiB (0%)
Title : [Forced]
Language : Ukrainian
Default : Yes
Forced : Yes

Text #3
ID : 6
Format : UTF-8
Codec ID : S_TEXT/UTF8
Codec ID/Info : UTF-8 Plain Text
Duration : 1 h 52 min
Bit rate : 80 b/s
Count of elements : 1782
Stream size : 66.7 KiB (0%)
Language : English
Default : No
Forced : No

Menu
00:00:00.000 : :Chapter 1
00:03:58.154 : :Chapter 2
00:10:17.533 : :Chapter 3
00:15:46.779 : :Chapter 4
00:20:44.660 : :Chapter 5
00:28:43.179 : :Chapter 6
00:35:07.563 : :Chapter 7
00:41:16.348 : :Chapter 8
00:47:16.124 : :Chapter 9
00:50:50.964 : :Chapter 10
00:55:45.508 : :Chapter 11
00:59:31.234 : :Chapter 12
01:03:47.198 : :Chapter 13
01:10:31.852 : :Chapter 14
01:12:59.416 : :Chapter 15
01:16:54.610 : :Chapter 16
01:21:29.134 : :Chapter 17
01:25:42.637 : :Chapter 18
01:28:59.792 : :Chapter 19
01:34:41.342 : :Chapter 20
01:38:44.251 : :Chapter 21
01:45:07.551 : :Chapter 22
01:51:14.209 : :Chapter 23
01:52:57.353 : :Chapter 24
02:01:08.427 : :

Дякую пану Demrandir за доріжку та саби
Джерело: &
Особиста оцінка: 8 - мені сподобалося
Грім у тропіках [Розширена версія] / Tropic Thunder [Unrated Director's Cut] (2008) AVC Ukr/Eng | Sub Ukr/Eng Грім у тропіках [Розширена версія] / Tropic Thunder [Unrated Director's Cut] (2008) AVC Ukr/Eng | Sub Ukr/Eng


 Трекер:    Зареєстрований   

Завантажити / скачати фільм українською



відео для новачків



 Зареєстрований:   2018-11-19 23:12
 Розмір:   3.34 GB 
 Оцінка фільму:   9.2/10 (Голосів: 25)
   
sinpavla 
Свій


З нами з: 15.06.12
Востаннє: 23.10.19
Повідомлень: 115

2018-11-20 20:03  
красно дякую
habl 
Новенький


З нами з: 17.11.16
Востаннє: 22.10.19
Повідомлень: 2

2018-11-20 21:59  
А чим ця версія відрізняється від звичайної?
SHEVA2018 
Новенький


З нами з: 24.09.18
Востаннє: 20.10.19
Повідомлень: 17

2019-09-07 23:33  
Веселенький такий фільм!!!)))
Ваш часовий пояс: GMT + 2 Години

Нова тема   Відповісти