Костянтин. Місто демонів / Constantine City of Demons: The Movie (2018) 720p Eng | sub Ukr

Нові коментарі

Нова тема   Відповісти
Автор Повідомлення
Anonymous 







2018-11-19 21:45  
Костянтин. Місто демонів / Constantine City of Demons: The Movie (2018) 720p Eng | sub Ukr

Костянтин. Місто демонів / Constantine City of Demons: The Movie (2018) 720p Eng | sub Ukr


Жанр: анімація, фентезі, містика, жахи
Країна: США



Кінокомпанія: DC Entertainment, CW Seed
Режисер: Даґ Мерфі
Актори: Метт Райан – Джон Костянтин: Досвідчений мисливець на демонів і майстер окультизму. Даміан О'Хара – Чес Чендлер Лаура Бейлі – Медсестра Кошмара / Ейса Емілі О'Бріен – Рене Чандлер Рейчел Кімзі – спікер Робін Аткін Даунс – Батлер Джим Мескімен – Берул

Сюжет:
Анімований фільм, присвячений пригодам надприродного детектива Джона Костянтина. Джон Костянтин використовує свої навички як мисливця на демонів і майстра темних мистецтв, щоб захистити світ від надприродних жахів, які йому загрожують.


Тривалість: 01:30:09
Якість:
Відео:
кодек:
розмір кадру: 1280x720
бітрейт: 1499 кб/с

Аудіо:
мова: англійська
переклад: оригінал
кодек: 5.1
бітрейт: 224 кб/с

Субтитри:
мова: українська
переклад: власний, любительський
тип: програмні (м'які)
формат: *.srt
Звіт Info

General
Complete name : D:\Constantine.City.of.Demons.The.Movie.2018.720p.BluRay.H264.\Constantine.City.of.Demons.The.Movie.2018.720p.BluRay.H264.-RARBG.mp4
Format : MPEG-4
Format profile : Base Media
Codec ID : isom (isom/iso2/avc1/mp41)
File size : 1.09 GiB
Duration : 1 h 30 min
Overall bit rate : 1 731 kb/s
Movie name : Constantine.City.of.Demons.The.Movie.2018.720p.BluRay.H264.-RARBG
Encoded date : UTC 2018-10-08 20:18:46
Tagged date : UTC 2018-10-08 20:18:46
Writing application : Lavf58.12.100
Comment : Constantine.City.of.Demons.The.Movie.2018.720p.BluRay.H264.-RARBG

Video
ID : 1
Format : AVC
Format/Info : Advanced Video Codec
Format profile : [email protected]
Format settings, CABAC : Yes
Format settings, RefFrames : 4 frames
Codec ID : avc1
Codec ID/Info : Advanced Video Coding
Duration : 1 h 30 min
Bit rate : 1 500 kb/s
Width : 1 280 pixels
Height : 720 pixels
Display aspect ratio : 16:9
Frame rate mode : Constant
Frame rate : 23.976 (23976/1000) FPS
Color space : YUV
Chroma subsampling : 4:2:0
Bit depth : 8 bits
Scan type : Progressive
Bits/(Pixel*Frame) : 0.068
Stream size : 967 MiB (87%)
Writing library : core 152 r2851M ba24899
Encoding settings : cabac=1 / ref=4 / deblock=1:-1:-1 / analyse=0x3:0x113 / me=umh / subme=9 / psy=1 / psy_rd=1.00:0.15 / mixed_ref=1 / me_range=24 / chroma_me=1 / trellis=2 / 8x8dct=1 / cqm=0 / deadzone=21,11 / fast_pskip=1 / chroma_qp_offset=-3 / threads=32 / lookahead_threads=4 / sliced_threads=0 / nr=0 / decimate=1 / interlaced=0 / bluray_compat=0 / constrained_intra=0 / bframes=3 / b_pyramid=2 / b_adapt=2 / b_bias=0 / direct=3 / weightb=1 / open_gop=0 / weightp=2 / keyint=250 / keyint_min=25 / scenecut=40 / intra_refresh=0 / rc_lookahead=50 / rc=2pass / mbtree=1 / bitrate=1500 / ratetol=1.0 / qcomp=0.60 / qpmin=0 / qpmax=69 / qpstep=4 / cplxblur=20.0 / qblur=0.5 / vbv_maxrate=31250 / vbv_bufsize=31250 / nal_hrd=none / filler=0 / ip_ratio=1.40 / aq=3:1.00
Encoded date : UTC 2018-10-08 20:18:46
Tagged date : UTC 2018-10-08 20:18:46

Audio
ID : 2
Format :
Format/Info : Advanced Audio Codec
Format profile : LC
Codec ID : 40
Duration : 1 h 30 min
Bit rate mode : Constant
Bit rate : 224 kb/s
Channel(s) : 2 channels
Channel(s)_Original : 6 channels
Channel positions : Front: L C R, Side: L R, LFE
Sampling rate : 48.0 kHz
Frame rate : 46.875 FPS (1024 SPF)
Compression mode : Lossy
Stream size : 144 MiB (13%)
Language : English
Default : Yes
Alternate group : 1
Encoded date : UTC 2018-10-08 20:18:46
Tagged date : UTC 2018-10-08 20:18:46
Скріншоти



Джерело: &
Особиста оцінка: 8 - мені сподобалося


Золотий реліз (завантажене не впливає на рейтинг)
 Трекер:    Зареєстрований   

Завантажити / скачати мультфільм українською



відео для новачків



 Зареєстрований:   2018-11-20 22:16
 Розмір:   1.09 GB 
 Оцінка мультфільму:   9.7/10 (Голосів: 9)
   
bot 
робот


З нами з: 30.09.07
Востаннє: 26.05.05
Повідомлень: 21779

2018-11-19 21:46  
Тему перенесено з Мультфільми до форуму Анонси релізів


Петров Микола

Roman7Fedorak 
Свій


З нами з: 30.03.12
Востаннє: 11.07.19
Повідомлень: 105

2018-11-20 12:31  
жду Happy
aVa_W 
Частий відвідувач


З нами з: 21.04.16
Востаннє: 15.05.19
Повідомлень: 27

2018-11-20 15:18  
Цікаво. Буду чекати!
bot 
робот


З нами з: 30.09.07
Востаннє: 26.05.05
Повідомлень: 21779

2018-11-20 22:15  
Тему перенесено з Анонси релізів до форуму Мультфільми


Петров Микола

11FrYkT 
Модератор відео


З нами з: 20.02.11
Востаннє: 20.08.19
Повідомлень: 6135

2018-11-22 22:00  
Петров Микола , додайте звіт МІ
Anonymous 







2018-11-23 09:36  
11FrYkT написано:
, додайте звіт МІ

Додано.

Ваш часовий пояс: GMT + 2 Години

Нова тема   Відповісти