Одинак / A Man Apart (2003) AVC [Open Matte] Ukr/Eng | Sub Eng

Нові коментарі

Нова тема   Відповісти
Автор Повідомлення
staf777 
Відео Гуртом - підтримка та поширення
Відео Гуртом - підтримка та поширення


З нами з: 16.11.16
Востаннє: 23.05.19
Повідомлень: 2379

2018-11-19 21:14  
Одинак / A Man Apart (2003) AVC [Open Matte] Ukr/Eng | Sub Eng

Одинак / A Man Apart (2003) AVC [Open Matte] Ukr/Eng | Sub Eng


Жанр: бойовик, драма
Країна: США



Кінокомпанія: "DIA" Productions GmbH & Co. KG, Joseph Nittolo Entertainment, New Line Cinema, Newman/Tooley Films
Режисер: Ф. Гері Грей
Актори: Він Дізель, Лоренц Тейт, Тімоті Оліфант, Джино Сільва, Жаклін Обрадорс, Стів Істін, Хуан Фернандес, Джефф Кобер, Марко Родрігес, Майк Морофф

Сюжет:
Він Дизель виконує в цьому фільмі роль агента Шона Веттера, оперативника, що бореться з контрабандою наркотиків з Мексики. Після того, як голова наркоторгівлі був ув'язнений, з'являється новий таємний персонаж, відомий як Діабло, який бере в свої руки контроль над всім трафіком. Коли в ході проваленої операції вбивають дружину Веттера, він і його колега (Лоренц Тейт) повинні влитися у злочинний картель, щоб вирахувати невловимого Діабло.


Тривалість: 01:49:27
Якість: AVC
Відео:
кодек:
розмір кадру: 1024x576
бітрейт: 3384 кб/с

Аудіо # 1:
мова: українська
переклад: багатоголосий закадровий
кодек: 5.1
бітрейт: 384 кб/с

Аудіо # 2:
мова: англійська
переклад: оригінал
кодек: 5.1
бітрейт: 384 кб/с

Субтитри:
мова: англійська
тип: програмні (м'які)
формат: *.srt






MI
General
Unique ID : 177175780772839856553206699394517801028 (0x854AD06CDBF69D985AE581CD56899844)
Complete name : N:\ Man Apart (2003) AVC [Open Matte] [Ukr][Eng][Hurtom].
Format :
Format version : Version 4 / Version 2
File size : 3.17 GiB
Duration : 1 h 49 min
Overall bit rate : 4 151 kb/s
Movie name : Man Apart (2003) AVC [Open Matte] [Ukr][Eng][Hurtom]
Encoded date : UTC 2018-11-19 20:46:11
Writing application : v24.0.0 ('Beyond The Pale') 64-bit
Writing library : libebml v1.3.6 + v1.4.9
Cover : Yes
Attachments : cover.jpg

Video
ID : 1
Format : AVC
Format/Info : Advanced Video Codec
Format profile : [email protected]
Format settings : CABAC / 9 Ref Frames
Format settings, CABAC : Yes
Format settings, ReFrames : 9 frames
Codec ID : V_MPEG4/ISO/AVC
Duration : 1 h 49 min
Bit rate : 3 384 kb/s
Width : 1 024 pixels
Height : 576 pixels
Display aspect ratio : 16:9
Frame rate mode : Constant
Frame rate : 24.000 FPS
Color space : YUV
Chroma subsampling : 4:2:0
Bit depth : 8 bits
Scan type : Progressive
Bits/(Pixel*Frame) : 0.239
Stream size : 2.59 GiB (81%)
Title : Rip by 0ptimus
Writing library : core 133 r2334 a3ac64b
Encoding settings : cabac=1 / ref=9 / deblock=1:-3:-3 / analyse=0x3:0x113 / me=umh / subme=11 / psy=1 / psy_rd=1.00:0.20 / mixed_ref=1 / me_range=32 / chroma_me=1 / trellis=2 / 8x8dct=1 / cqm=0 / deadzone=21,11 / fast_pskip=0 / chroma_qp_offset=-3 / threads=3 / lookahead_threads=1 / sliced_threads=0 / nr=0 / decimate=0 / interlaced=0 / bluray_compat=0 / constrained_intra=0 / bframes=13 / b_pyramid=2 / b_adapt=2 / b_bias=0 / direct=3 / weightb=1 / open_gop=0 / weightp=2 / keyint=240 / keyint_min=24 / scenecut=40 / intra_refresh=0 / rc_lookahead=40 / rc=2pass / mbtree=0 / bitrate=3384 / ratetol=1.0 / qcomp=0.60 / qpmin=0 / qpmax=69 / qpstep=4 / cplxblur=20.0 / qblur=0.5 / vbv_maxrate=50000 / vbv_bufsize=50000 / nal_hrd=none / ip_ratio=1.40 / pb_ratio=1.30 / aq=1:1.00
Language : English
Default : Yes
Forced : Yes

Audio #1
ID : 2
Format : AC-3
Format/Info : Audio Coding 3
Codec ID : A_AC3
Duration : 1 h 49 min
Bit rate mode : Constant
Bit rate : 384 kb/s
Channel(s) : 6 channels
Channel positions : Front: L C R, Side: L R, LFE
Sampling rate : 48.0 kHz
Frame rate : 31.250 FPS (1536 SPF)
Bit depth : 16 bits
Compression mode : Lossy
Stream size : 301 MiB (9%)
Title : [UKR-MVO-ICTV]
Language : Ukrainian
Service kind : Complete Main
Default : Yes
Forced : Yes

Audio #2
ID : 3
Format : AC-3
Format/Info : Audio Coding 3
Codec ID : A_AC3
Duration : 1 h 49 min
Bit rate mode : Constant
Bit rate : 384 kb/s
Channel(s) : 6 channels
Channel positions : Front: L C R, Side: L R, LFE
Sampling rate : 48.0 kHz
Frame rate : 31.250 FPS (1536 SPF)
Bit depth : 16 bits
Compression mode : Lossy
Stream size : 301 MiB (9%)
Title : 5.1 @ 384 kbps
Language : English
Service kind : Complete Main
Default : No
Forced : No

Text
ID : 4
Format : UTF-8
Codec ID : S_TEXT/UTF8
Codec ID/Info : UTF-8 Plain Text
Duration : 1 h 41 min
Bit rate : 55 b/s
Count of elements : 1197
Stream size : 41.3 KiB (0%)
Title : SDH
Language : English
Default : No
Forced : No

Menu
00:00:00.000 : :20 Tons a Month
00:03:30.834 : :No-Gun Raid
00:11:22.168 : :Home Sweet Home
00:12:32.168 : :The Drug War Is On
00:14:26.335 : :Memo's New Orders
00:16:56.835 : :Survival of the Whipped
00:21:18.169 : :Home Invasion
00:25:02.536 : :"Where Is Stacey?"
00:30:01.536 : :Face to Face, Ten Feet Away
00:34:44.836 : :Capone Can Sniff It
00:37:55.003 : :Overdose in the Attic
00:42:44.003 : :The New Guy's Name
00:46:23.203 : :Hollywood Jack
00:52:59.503 : :The Last Safe Place
00:54:48.503 : :The Widower's Pact
00:57:22.503 : :A Good Businessman
01:03:07.170 : :The Deal Goes Down... in Flames
01:10:01.170 : :"Sean, You're Done"
01:11:57.504 : :Becoming a Monster
01:17:22.338 : :The Gang United
01:21:06.338 : :South of Nowhere
01:24:27.172 : :Follow the Money
01:28:06.040 : :The Old Haunt
01:35:38.173 : :"If I Wanted You Dead..."
01:41:39.707 : :Gone But Not Forgotten
01:44:20.508 : :End Credits

За українську доріжку подяка п.: drakon87, MasterYura
За український постер подяка п. Microfibra
Джерело: &
Особиста оцінка: 8 - мені сподобалося
Одинак / A Man Apart (2003) AVC [Open Matte] Ukr/Eng | Sub Eng Одинак / A Man Apart (2003) AVC [Open Matte] Ukr/Eng | Sub Eng


Срібний реліз (на рейтинг впливає 50% завантаженого)
 Трекер:    Зареєстрований   

Завантажити / скачати фільм українською



відео для новачків



 Зареєстрований:   2018-11-20 00:08
 Розмір:   3.17 GB 
 Оцінка фільму:   6.2/10 (Голосів: 9)
   
Інші релізи
   Одинак / A Man Apart (2003) 720p [Open Matte] Ukr/Eng | Sub Eng drop_plz  0 / 0   6.64 GB   2018-08-08 07:48 
   Одинак / A Man Apart (2003) Ukr/Eng MasterYura  2 / 0   2.18 GB   2010-04-12 20:58 
bot 
робот


З нами з: 30.09.07
Востаннє: 26.05.05
Повідомлень: 21374

2018-11-19 21:41  
Тему перенесено з Фільми до форуму Анонси релізів


staf777

bot 
робот


З нами з: 30.09.07
Востаннє: 26.05.05
Повідомлень: 21374

2018-11-20 00:08  
Тему перенесено з Анонси релізів до форуму Фільми


staf777

Ваш часовий пояс: GMT + 2 Години

Нова тема   Відповісти