Вони повернулися / Ті, що повернулися (Сезон 1) / The Returned (Season 1) 720p Eng | sub Ukr/Eng

Нові коментарі

Нова тема   Відповісти
Автор Повідомлення
Anonymous 







2018-11-19 18:48  
Вони повернулися / Ті, що повернулися (Сезон 1) / The Returned (Season 1)
720p Eng | sub Ukr/Eng

Вони повернулися / Ті, що повернулися (Сезон 1) / The Returned (Season 1) 720p Eng | sub Ukr/Eng


ще постер


Жанр: драма, містика, жахи
Країна: США



Кінокомпанія: A&E Network
Актори: Індія Енненга, Софі Лоу, Мат Вайро, Джеремі Сісто, Марк Пеллегріно, Мері Елізабет Вінстед, Танді Райт

Сюжет:
Одного дня додому повертається дівчина, яка вже кілька років, як загинула в автокатастрофі і вона не одна така.


Тривалість: 45 хв серій 10 з 10
Якість:
Відео:
кодек:
розмір кадру: 1280 х 720
бітрейт: 4440 кб/с

Аудіо:
мова: англійська
переклад: оригінал
кодек: 5.1
бітрейт: 640 кб/с

Субтитри:
мова: українська
тип: програмні (м'які)
формат: *.srt
переклад субтитрів: Марія Матвійчук

Субтитри:
мова: англійська
тип: програмні (м'які)
формат: *.srt
Скріншоти






МІ
Complete name : F:\Serials\The Returned\S01E01.
Format :
Format version : Version 4
File size : 1.63 GiB
Duration : 46 min 6 s
Overall bit rate : 5 065 kb/s
Encoded date : UTC 2018-11-15 15:52:02
Writing application : v27.0.0 ('Metropolis') 64-bit
Writing library : libebml v1.3.6 + v1.4.9

Video
ID : 1
Format : AVC
Format/Info : Advanced Video Codec
Format profile : [email protected]
Format settings : CABAC / 9 Ref Frames
Format settings, CABAC : Yes
Format settings, ReFrames : 9 frames
Codec ID : V_MPEG4/ISO/AVC
Duration : 45 min 55 s
Bit rate : 4 440 kb/s
Width : 1 280 pixels
Height : 720 pixels
Display aspect ratio : 16:9
Frame rate mode : Constant
Frame rate : 23.976 (24000/1001) FPS
Color space : YUV
Chroma subsampling : 4:2:0
Bit depth : 8 bits
Scan type : Progressive
Bits/(Pixel*Frame) : 0.201
Stream size : 1.42 GiB (87%)
Writing library : core 146 r2538 121396c
Encoding settings : cabac=1 / ref=9 / deblock=1:-1:-1 / analyse=0x3:0x133 / me=umh / subme=10 / psy=1 / psy_rd=1.00:0.15 / mixed_ref=1 / me_range=24 / chroma_me=1 / trellis=2 / 8x8dct=1 / cqm=0 / deadzone=21,11 / fast_pskip=1 / chroma_qp_offset=-3 / threads=24 / lookahead_threads=4 / sliced_threads=0 / nr=0 / decimate=1 / interlaced=0 / bluray_compat=0 / constrained_intra=0 / bframes=8 / b_pyramid=2 / b_adapt=2 / b_bias=0 / direct=3 / weightb=1 / open_gop=0 / weightp=2 / keyint=250 / keyint_min=23 / scenecut=40 / intra_refresh=0 / rc_lookahead=60 / rc=crf / mbtree=1 / crf=15.5 / qcomp=0.60 / qpmin=0 / qpmax=69 / qpstep=4 / ip_ratio=1.40 / aq=2:0.90
Language : English
Default : Yes
Forced : No
Color range : Limited
Color primaries : BT.709
Transfer characteristics : BT.709
Matrix coefficients : BT.709

Audio
ID : 2
Format : AC-3
Format/Info : Audio Coding 3
Commercial name : Dolby Digital
Codec ID : A_AC3
Duration : 46 min 6 s
Bit rate mode : Constant
Bit rate : 640 kb/s
Channel(s) : 6 channels
Channel layout : L R C LFE Ls Rs
Sampling rate : 48.0 kHz
Frame rate : 31.250 FPS (1536 SPF)
Bit depth : 16 bits
Compression mode : Lossy
Stream size : 211 MiB (13%)
Title : ENG 5.1
Language : English
Service kind : Complete Main
Default : No
Forced : No

Text #1
ID : 3
Format : UTF-8
Codec ID : S_TEXT/UTF8
Codec ID/Info : UTF-8 Plain Text
Duration : 45 min 4 s
Bit rate : 43 b/s
Count of elements : 378
Stream size : 14.5 KiB (0%)
Language : Ukrainian
Default : Yes
Forced : No

Text #2
ID : 4
Format : UTF-8
Codec ID : S_TEXT/UTF8
Codec ID/Info : UTF-8 Plain Text
Duration : 45 min 16 s
Bit rate : 35 b/s
Count of elements : 550
Stream size : 11.9 KiB (0%)
Language : English
Default : No
Forced : No
Джерело:
Особиста оцінка: 9 - давно не бачив настільки якісне кіно


Бронзовий реліз (на рейтинг впливає 75% завантаженого)
 Трекер:    Зареєстрований   

Завантажити / скачати серіал українською



відео для новачків



 Зареєстрований:   2018-11-19 18:48
 Розмір:   14.05 GB 
 Оцінка серіалу:   10/10 (Голосів: 4)
   
Anonymous 







2019-10-04 11:32  
На жаль мушу покинути роздачу.
Але субтитри зберіг і якщо роздача помере, а комусь будуть потрібні то пишіть тут у коментарях.//

SurFutur 
VIP


З нами з: 12.03.15
Востаннє: 03.12.20
Повідомлень: 516

2019-10-13 04:56  
Anonymous написано:
субтитри зберіг і якщо роздача помере, а комусь будуть потрібні то пишіть тут у коментарях

Закинув субтитри на OpenSubtitles та Subscene. Можете спокійно видаляти саби до цього серіалу в себе Wink (2)

Ваш часовий пояс: GMT + 2 Години

Нова тема   Відповісти