Хороші дівчата (Сезон 1) / Good Girls (Season 1) (2018) 720p Ukr/Eng | sub Ukr/Eng

Нові коментарі

Нова тема   Відповісти
Автор Повідомлення
Anonymous 







2018-11-19 18:21  
Хороші дівчата (Сезон 1) / Good Girls (Season 1) (2018) 720p Ukr/Eng | sub Ukr/Eng



Жанр: драма, кримінальний, комедія
Країна: США
Актори: Мае Вітмен, Крістіна Хендрікс, Ретта, Менні Монтанья, Ріно Вілсон.



Кінокомпанія: Netflix
Сюжет:
У трьох матерів з передмістя, скрутні часи і вони вирішують їх за допомогою пограбування, але це спричиняє ще більше проблем коли виявляється, що гроші які вони вкрали належали бандитам.


Тривалість: 1 серія: 45хв (цілком серій: 10 з 10)
перелік серій
1.Pilot
2.Mo Money Mo Problems
3.Borderline
4.Atom Bomb
5.Taking Care of Business
6.A View from the Top
7.Special Sauce
8.Shutdown
9.Summer of the Shark
10.Remix
Якість:
Відео:
кодек:
розмір кадру: 1280 х 720
бітрейт: 2000- 3300 кб/с

Аудіо:1
мова: українська
переклад: одноголосий закадровий | Done56
кодек: 2.0
бітрейт: 192 кб/с

Аудіо:2
мова: англійська
переклад: оригінал
кодек: 5.1
бітрейт: 384 кб/с

Субтитри:
мова: українська
тип: програмні (м'які)
формат: *.srt
переклад субтитрів: Наталя Ковалишин

Субтитри:
мова: англійська
тип: програмні (м'які)
формат: *.srt
Скріншоти







MI
Format :
Format version : Version 4
File size : 873 MiB
Duration : 45 min 6 s
Overall bit rate mode : Variable
Overall bit rate : 2 705 kb/s
Encoded date : UTC 2019-07-08 15:26:51
Writing application : v27.0.0 ('Metropolis') 64-bit
Writing library : libebml v1.3.6 + v1.4.9
Cover : Yes
Attachments : cover.png

Video
ID : 1
Format : AVC
Format/Info : Advanced Video Codec
Format profile : [email protected]
Format settings : CABAC / 3 Ref Frames
Format settings, CABAC : Yes
Format settings, ReFrames : 3 frames
Codec ID : V_MPEG4/ISO/AVC
Duration : 45 min 5 s
Bit rate mode : Variable
Bit rate : 2 150 kb/s
Maximum bit rate : 3 225 kb/s
Width : 1 280 pixels
Height : 720 pixels
Display aspect ratio : 16:9
Frame rate mode : Constant
Frame rate : 23.976 (24000/1001) FPS
Color space : YUV
Chroma subsampling : 4:2:0
Bit depth : 8 bits
Scan type : Progressive
Bits/(Pixel*Frame) : 0.097
Stream size : 680 MiB (78%)
Writing library : core 148 r2715 7e75228
Encoding settings : cabac=1 / ref=3 / deblock=1:0:0 / analyse=0x1:0x111 / me=umh / subme=10 / psy=1 / psy_rd=1.00:0.00 / mixed_ref=1 / me_range=24 / chroma_me=1 / trellis=2 / 8x8dct=0 / cqm=0 / deadzone=21,11 / fast_pskip=1 / chroma_qp_offset=-2 / threads=8 / lookahead_threads=1 / sliced_threads=0 / nr=0 / decimate=1 / interlaced=0 / bluray_compat=0 / stitchable=1 / constrained_intra=0 / bframes=2 / b_pyramid=0 / b_adapt=2 / b_bias=0 / direct=3 / weightb=1 / open_gop=0 / weightp=2 / keyint=48 / keyint_min=25 / scenecut=0 / intra_refresh=0 / rc_lookahead=48 / rc=2pass / mbtree=1 / bitrate=2150 / ratetol=1.0 / qcomp=0.50 / qpmin=6 / qpmax=51 / qpstep=4 / cplxblur=20.0 / qblur=0.5 / vbv_maxrate=3225 / vbv_bufsize=4300 / nal_hrd=vbr / filler=0 / ip_ratio=1.40 / aq=1:1.00
Language : English
Default : Yes
Forced : No

Audio #1
ID : 2
Format : LC
Format/Info : Advanced Audio Codec Low Complexity
Codec ID : A_AAC-2
Duration : 45 min 6 s
Bit rate : 192 kb/s
Channel(s) : 2 channels
Channel layout : L R
Sampling rate : 48.0 kHz
Frame rate : 46.875 FPS (1024 SPF)
Compression mode : Lossy
Stream size : 63.0 MiB (7%)
Title : VO - Done56
Language : Ukrainian
Default : Yes
Forced : No

Audio #2
ID : 3
Format : AC-3
Format/Info : Audio Coding 3
Commercial name : Dolby Digital
Codec ID : A_AC3
Duration : 45 min 5 s
Bit rate mode : Constant
Bit rate : 384 kb/s
Channel(s) : 6 channels
Channel layout : L R C LFE Ls Rs
Sampling rate : 48.0 kHz
Frame rate : 31.250 FPS (1536 SPF)
Bit depth : 16 bits
Compression mode : Lossy
Stream size : 124 MiB (14%)
Language : English
Service kind : Complete Main
Default : No
Forced : No

Text #1
ID : 4
Format : UTF-8
Codec ID : S_TEXT/UTF8
Codec ID/Info : UTF-8 Plain Text
Duration : 43 min 50 s
Bit rate : 126 b/s
Count of elements : 777
Stream size : 40.6 KiB (0%)
Language : Ukrainian
Default : Yes
Forced : No

Text #2
ID : 5
Format : UTF-8
Codec ID : S_TEXT/UTF8
Codec ID/Info : UTF-8 Plain Text
Duration : 43 min 21 s
Bit rate : 88 b/s
Count of elements : 857
Stream size : 28.0 KiB (0%)
Language : English
Default : No
Forced : No
Джерело:
Особиста оцінка: 8 - мені сподобалося


Авторський реліз (завантажувати можна без реєстрації)
 Трекер:    Зареєстрований   

Завантажити / скачати серіал українською



відео для новачків



 Зареєстрований:   2019-07-08 18:46
 Розмір:   8.07 GB 
 Оцінка серіалу:   9/10 (Голосів: 11)
   
kotiko4321 
Частий відвідувач


З нами з: 18.11.16
Востаннє: 10.08.19
Повідомлень: 46

2018-12-22 19:44  
Один з найкращих комедійних серіалів, що бачив за останні роки.
kotiko4321 
Частий відвідувач


З нами з: 18.11.16
Востаннє: 10.08.19
Повідомлень: 46

2019-03-31 13:29  
Коли з'явиться другий сезон на сайті?
Anonymous 







2019-03-31 13:32  
kotiko4321 написано:
Коли з'явиться другий сезон на сайті?


на жаль поки другий сезон відсутній на нетфліксу.
скоріш за все з'явиться аж після повного показу на телеканалі.

[email protected] 
Новенький


З нами з: 30.05.18
Востаннє: 22.08.19
Повідомлень: 3

2019-06-17 22:07  
Дякуємо,озвучка шикарна.
Дякуємо спонсору)

Done56 
Свій


З нами з: 23.11.15
Востаннє: 23.08.19
Повідомлень: 58

2019-06-19 23:34  
Вітаю! а автор перекладу тут буває?
Anonymous 







2019-07-08 18:48  
ОНОВЛЕННЯ:
1. Заміна якості до 720р
2. Додано українське озвучення

Перевантажте торент повністю зі всіма файлами.

bot 
робот


З нами з: 30.09.07
Востаннє: 26.05.05
Повідомлень: 21799

2019-07-08 19:37  
Тему перенесено з Телесеріали до форуму Серіали в HD


leicheman

Electroz 
Відео Гуртом - підтримка та поширення
Відео Гуртом - підтримка та поширення


З нами з: 18.09.14
Востаннє: 24.08.19
Повідомлень: 3538

2019-07-09 23:50  
Anonymous написано:

Аудіо:1
мова: українська
переклад: одноголосий закадровий | Done56
кодек: 2.0
бітрейт: 192 кб/с

Чистих голосів немає?

Anonymous 







2019-07-10 00:07  
Electroz написано:
Чистих голосів немає?


автор сказав, що не залишилися.

Ваш часовий пояс: GMT + 2 Години

Нова тема   Відповісти