Застрель їх / Shoot 'Em Up (2007) 720p Ukr/Eng | Sub Eng

Нові коментарі

Нова тема   Відповісти
Останній раз роздавалося VaniushaJoker (2019-11-14)
Автор Повідомлення
staf777 
Відео Гуртом - підтримка та поширення
Відео Гуртом - підтримка та поширення


З нами з: 16.11.16
Востаннє: 19.11.19
Повідомлень: 3032

2018-11-19 16:54  
Застрель їх / Shoot 'Em Up (2007) 720p Ukr/Eng | Sub Eng

Застрель їх / Shoot 'Em Up (2007) 720p Ukr/Eng | Sub Eng


Жанр: бойовик, комедія, трилер, кримінальний
Країна: США



Кінокомпанія: New Line Cinema
Режисер: Майкл Девіс / Michael Davis
Актори: Клайв Овен / Clive Owen, Пол Джаматті / Paul Giamatti, Моніка Беллуччі / Monica Bellucci, Стівен Макхетті / Stephen McHattie, Грег Брайк / Greg Bryk, Деніель Пілон / Daniel Pilon, Сідні Менде-Гібсон / Sidney Mende-Gibson та інші

Сюжет:
Головний герой Сміт, який не може забути трагічних подій свого минулого, стає випадковим свідком спроби вбивства молодої вагітної жінки. Під час божевільної перестрілки з бандитами породілля гине, а головний герой вирішує врятувати немовля. У результаті він опиняється вплутаним в урядову змову. Для догляду і нагляду за малюком Сміт звертається до своєї давньої знайомої, повії Донне Кінтана. Разом вони намагаються врятувати малюка і розкрити цю змову, в яку, як з'ясовується, вплутаний один з найвпливовіших чиновників...


Тривалість: 01:26:32
Якість: 720p
Відео:
кодек:
розмір кадру: 1280x546
бітрейт: 9000 кб/с

Аудіо # 1: "ТакТребаПродакшн" для
мова: українська
переклад: багатоголосий закадровий
кодек: 5.1
бітрейт: 448 кб/с

Аудіо # 2:
мова: англійська
переклад: оригінал
кодек: 5.1
бітрейт: 1509 кб/с

Субтитри:
мова: англійська
тип: програмні (м'які)
формат: *.srt
Info
General
Unique ID : 305858534814204566068338417983116475115 (0xE61A360A4A29460ABF17FFCAFD92FAEB)
Complete name : N:\Shoot 'Em Up (2007) 720p [Ukr][Eng][Hurtom].
Format :
Format version : Version 4 / Version 2
File size : 6.61 GiB
Duration : 1 h 26 min
Overall bit rate : 10.9 Mb/s
Movie name : Shoot 'Em Up (2007) 720p [Ukr][Eng][Hurtom]
Encoded date : UTC 2018-11-19 13:55:09
Writing application : v24.0.0 ('Beyond The Pale') 64-bit
Writing library : libebml v1.3.6 + v1.4.9
Cover : Yes
Attachments : cover.jpg

Video
ID : 1
Format : AVC
Format/Info : Advanced Video Codec
Format profile : [email protected]
Format settings : CABAC / 11 Ref Frames
Format settings, CABAC : Yes
Format settings, ReFrames : 11 frames
Codec ID : V_MPEG4/ISO/AVC
Duration : 1 h 26 min
Bit rate : 9 000 kb/s
Width : 1 280 pixels
Height : 546 pixels
Display aspect ratio : 2.35:1
Frame rate mode : Constant
Frame rate : 23.976 (23976/1000) FPS
Color space : YUV
Chroma subsampling : 4:2:0
Bit depth : 8 bits
Scan type : Progressive
Bits/(Pixel*Frame) : 0.537
Stream size : 5.43 GiB (82%)
Writing library : core 119 r2106 07efeb4
Encoding settings : cabac=1 / ref=11 / deblock=1:-2:-2 / analyse=0x3:0x113 / me=umh / subme=10 / psy=1 / psy_rd=1.00:0.00 / mixed_ref=1 / me_range=48 / chroma_me=1 / trellis=2 / 8x8dct=1 / cqm=0 / deadzone=21,11 / fast_pskip=0 / chroma_qp_offset=-2 / threads=18 / sliced_threads=0 / nr=0 / decimate=1 / interlaced=0 / bluray_compat=0 / constrained_intra=0 / bframes=8 / b_pyramid=2 / b_adapt=2 / b_bias=0 / direct=3 / weightb=1 / open_gop=0 / weightp=2 / keyint=240 / keyint_min=24 / scenecut=40 / intra_refresh=0 / rc_lookahead=80 / rc=2pass / mbtree=1 / bitrate=9000 / ratetol=1.0 / qcomp=0.60 / qpmin=0 / qpmax=69 / qpstep=4 / cplxblur=20.0 / qblur=0.5 / ip_ratio=1.40 / aq=1:0.90
Language : English
Default : Yes
Forced : No

Audio #1
ID : 2
Format : AC-3
Format/Info : Audio Coding 3
Codec ID : A_AC3
Duration : 1 h 26 min
Bit rate mode : Constant
Bit rate : 448 kb/s
Channel(s) : 6 channels
Channel positions : Front: L C R, Side: L R, LFE
Sampling rate : 48.0 kHz
Frame rate : 31.250 FPS (1536 SPF)
Bit depth : 16 bits
Compression mode : Lossy
Stream size : 277 MiB (4%)
Title : [Ukr-Mvo]
Language : Ukrainian
Service kind : Complete Main
Default : Yes
Forced : Yes

Audio #2
ID : 3
Format :
Format/Info : Digital Theater Systems
Codec ID : A_DTS
Duration : 1 h 26 min
Bit rate mode : Constant
Bit rate : 1 509 kb/s
Channel(s) : 6 channels
Channel positions : Front: L C R, Side: L R, LFE
Sampling rate : 48.0 kHz
Frame rate : 93.750 FPS (512 SPF)
Bit depth : 24 bits
Compression mode : Lossy
Stream size : 934 MiB (14%)
Title : Original
Language : English
Default : No
Forced : No

Text
ID : 4
Format : UTF-8
Codec ID : S_TEXT/UTF8
Codec ID/Info : UTF-8 Plain Text
Duration : 1 h 18 min
Bit rate : 49 b/s
Count of elements : 880
Stream size : 28.1 KiB (0%)
Title : Full
Language : English
Default : No
Forced : No





Джерело: &
Особиста оцінка: 8 - мені сподобалося
Застрель їх / Shoot 'Em Up (2007) 720p Ukr/Eng | Sub Eng Застрель їх / Shoot 'Em Up (2007) 720p Ukr/Eng | Sub Eng

olgaya та yuraflash звукозапис з ТБ, _oles синхронізація, thefir українізований постер.


 Трекер:    Зареєстрований   

Завантажити / скачати фільм українською



відео для новачків



 Зареєстрований:   2018-11-19 16:54
 Розмір:   6.61 GB 
 Оцінка фільму:   9/10 (Голосів: 13)
   
Інші релізи
   Застрель їх / Shoot 'Em Up (2007) 1080p H.265 Ukr/Eng | Sub Eng -Star-Lord-  6 / 0   3.56 GB   2019-01-11 14:12 
   Застрель їх / Shoot 'Em Up (2007) AVC Ukr/Eng | Sub Eng staf777  3 / 0   2.01 GB   2018-11-19 22:39 
   Застрель їх / Shoot 'Em Up (2007) Blu-Ray Remux 1080p Ukr/Eng | Sub-Eng Kuzmenko  4 / 0   16.47 GB   2010-12-20 10:31 
   Застрель їх / Shoot 'Em Up (2007) mini 720p hellforces  1 / 0   1.92 GB   2010-07-29 00:49 
   Застрель їх / Shoot 'Em Up (2007) Ukr/Eng | Sub Ukr/Eng _oles  3 / 1   1.73 GB   2010-02-03 16:53 
Ваш часовий пояс: GMT + 2 Години

Нова тема   Відповісти