Загублене місто / The Lost City (2005) AVC Ukr/Eng | sub Eng

Нові коментарі

Нова тема   Відповісти
Автор Повідомлення
staf777 
Відео Гуртом - підтримка та поширення
Відео Гуртом - підтримка та поширення


З нами з: 16.11.16
Востаннє: 09.08.20
Повідомлень: 3930

2018-11-19 12:45  
Загублене місто / The Lost City (2005) AVC Ukr/Eng | sub Eng

Загублене місто / The Lost City (2005) AVC Ukr/Eng | sub Eng


Жанр: драма
Країна: США



Кінокомпанія: Crescent Drive Pictures, CineSon Entertainment, Lions Gate Films
Режисер: Енді Гарсія
Актори: Енді Гарсіа, Інес Састр, Томас Міліан, Річард Бредфорд, Нестор Карбонелл, Енріке Маркіано, Дастін Хоффман, Білл Мюррей, Стівен Бауер, Хуан Фернандез, Хсу Гарсіа, Вільям Маркес, Хуліо Оскар Мечозо, Елізабет Пенья, Міллі Перкінс, Деніел Піно, Тоні Плана, Віктор Ріверз

Сюжет:
1958 року. Столиця Куби - Гавана - ідеальне місце для відпочинку і розваг багатьох людей. Однак є й ті, кому не припав до вподоби диктаторський режим Батісти. Революційний рух під проводом Фіделя Кастро та Ернесто Че Геварри стрімко набирає силу і готується зробити переворот в Гавані ...
Незважаючи на перебіг історичних подій, Фіко Феллові - власник кращого музичного нічного клубу "Ель Тропіко" - прагне налагодити життя своєї сім'ї та коханої жінки, ще не підозрюючи, що його клуб незабаром стане чимось більшим, ніж сценою для популярного шоу. Виходець з Америки - письменник, - спостерігає за тим, як змінюються речі, що були для Фіко звичними до цих подій. Зміни в людях і їх культурі не проходять безслідно, але єдина річ, нездатна мінятися так само швидко - це кубинська музика, що живе в пам'яті героя!


Тривалість: 02:24:20
Якість: AVC
Відео:
кодек:
розмір кадру: 1024x568
бітрейт: 3191 кб/с

Аудіо # 1:
мова: українська
переклад: багатоголосий закадровий | Так Треба Продакшн на замовлення Інт Вест Дистрибушн
кодек: 5.1
бітрейт: 448 кб/с
ролі озвучили: Біл Мюрей — Юрій Гребельник, Енді Ґарсія — Олег Стальчук, Інна Капінос? і Дастін Гоффмен — Анатолій Пашнін

Аудіо # 2:
мова: англійська
переклад: оригінал
кодек: 5.1
бітрейт: 448 кб/с

Субтитри:
мова: англійська
тип: програмні (м'які)
формат: *.srt
MI
General
Unique ID : 194360812659360140429619751505689517374 (0x923887E9D2C1C6DC5F1A7E21DBB71D3E)
Complete name : N:\Фільми AVC\Драма\The Lost City (2005) AVC [UA][ENG][Hurtom].
Format :
Format version : Version 4 / Version 2
File size : 4.12 GiB
Duration : 2 h 24 min
Overall bit rate : 4 088 kb/s
Movie name : The Lost City (2005) AVC [UA][ENG][Hurtom]
Encoded date : UTC 2018-11-19 08:53:00
Writing application : v24.0.0 ('Beyond The Pale') 64-bit
Writing library : libebml v1.3.6 + v1.4.9
Cover : Yes
Attachments : cover.jpg

Video
ID : 1
Format : AVC
Format/Info : Advanced Video Codec
Format profile : [email protected]
Format settings : CABAC / 12 Ref Frames
Format settings, CABAC : Yes
Format settings, ReFrames : 12 frames
Codec ID : V_MPEG4/ISO/AVC
Duration : 2 h 24 min
Bit rate : 3 191 kb/s
Width : 1 024 pixels
Height : 568 pixels
Display aspect ratio : 16:9
Frame rate mode : Constant
Frame rate : 23.976 (24000/1001) FPS
Color space : YUV
Chroma subsampling : 4:2:0
Bit depth : 8 bits
Scan type : Progressive
Bits/(Pixel*Frame) : 0.229
Stream size : 3.21 GiB (78%)
Title : The.Lost.City.2005...AVC.
Writing library : core 146 r2538 121396c
Encoding settings : cabac=1 / ref=12 / deblock=1:-3:-3 / analyse=0x3:0x113 / me=umh / subme=11 / psy=1 / psy_rd=1.00:0.10 / mixed_ref=1 / me_range=32 / chroma_me=1 / trellis=2 / 8x8dct=1 / cqm=0 / deadzone=21,11 / fast_pskip=0 / chroma_qp_offset=-3 / threads=12 / lookahead_threads=2 / sliced_threads=0 / nr=0 / decimate=0 / interlaced=0 / bluray_compat=0 / constrained_intra=0 / bframes=9 / b_pyramid=2 / b_adapt=2 / b_bias=0 / direct=3 / weightb=1 / open_gop=1 / weightp=2 / keyint=240 / keyint_min=23 / scenecut=40 / intra_refresh=0 / rc=2pass / mbtree=0 / bitrate=3191 / ratetol=1.0 / qcomp=0.70 / qpmin=0 / qpmax=69 / qpstep=4 / cplxblur=20.0 / qblur=0.5 / ip_ratio=1.40 / pb_ratio=1.30 / aq=1:0.70
Language : English
Default : Yes
Forced : No

Audio #1
ID : 2
Format : AC-3
Format/Info : Audio Coding 3
Codec ID : A_AC3
Duration : 2 h 24 min
Bit rate mode : Constant
Bit rate : 448 kb/s
Channel(s) : 6 channels
Channel positions : Front: L C R, Side: L R, LFE
Sampling rate : 48.0 kHz
Frame rate : 31.250 FPS (1536 SPF)
Bit depth : 16 bits
Compression mode : Lossy
Stream size : 463 MiB (11%)
Title : (ТОНІС)
Language : Ukrainian
Service kind : Complete Main
Default : Yes
Forced : Yes

Audio #2
ID : 3
Format : AC-3
Format/Info : Audio Coding 3
Codec ID : A_AC3
Duration : 2 h 24 min
Bit rate mode : Constant
Bit rate : 448 kb/s
Channel(s) : 6 channels
Channel positions : Front: L C R, Side: L R, LFE
Sampling rate : 48.0 kHz
Frame rate : 31.250 FPS (1536 SPF)
Bit depth : 16 bits
Compression mode : Lossy
Stream size : 463 MiB (11%)
Language : English
Service kind : Complete Main
Default : No
Forced : No

Text
ID : 4
Format : UTF-8
Codec ID : S_TEXT/UTF8
Codec ID/Info : UTF-8 Plain Text
Duration : 2 h 13 min
Bit rate : 44 b/s
Count of elements : 1755
Stream size : 43.5 KiB (0%)
Language : English
Default : No
Forced : No

Menu
00:00:00.000 : en:00:00:00.000
00:11:20.054 : en:00:11:20.054
00:18:02.372 : en:00:18:02.372
00:26:38.013 : en:00:26:38.013
00:36:58.883 : en:00:36:58.883
00:42:48.399 : en:00:42:48.399
00:47:40.190 : en:00:47:40.190
01:01:36.192 : en:01:01:36.192
01:13:26.735 : en:01:13:26.735
01:25:47.809 : en:01:25:47.809
01:39:53.153 : en:01:39:53.153
01:50:01.886 : en:01:50:01.886
02:02:52.531 : en:02:02:52.531
02:11:17.661 : en:02:11:17.661
02:15:22.322 : en:02:15:22.322
02:19:31.529 : en:02:19:31.529



Джерело: &
Українська доріжка - Disturbed, JACKUS, постер - Gelios.
Особиста оцінка: 8 - мені сподобалося
Загублене місто / The Lost City (2005) AVC Ukr/Eng | sub Eng Загублене місто / The Lost City (2005) AVC Ukr/Eng | sub Eng


 Трекер:    Зареєстрований   

Завантажити / скачати фільм українською



відео для новачків



 Зареєстрований:   2018-11-19 12:45
 Розмір:   4.12 GB 
 Оцінка фільму:   8.6/10 (Голосів: 8)
   
Інші релізи
   Загублене місто / The Lost City (2005) Ukr/Eng | sub Eng JACKUS  2 / 0   2.92 GB   2011-05-03 16:02 
leicheman 
Відео Гуртом - фільмокрай
Відео Гуртом - фільмокрай


З нами з: 03.07.14
Востаннє: 09.08.20
Повідомлень: 5238

2018-11-19 13:03  
staf777 написано:
професійний дубльований

багатоголосий

igor911 
Модератор відео


З нами з: 18.01.08
Востаннє: 09.08.20
Повідомлень: 14935

2018-11-19 13:23  
виправив та додав інфу про озвучення
Ваш часовий пояс: GMT + 2 Години

Нова тема   Відповісти