Дивовижний Ізраїль (Сезон 1) / Wild Israel (Season 1) (2016) AVC

Нові коментарі

Нова тема   Відповісти
Останній раз роздавалося Drool (2019-04-19)
Автор Повідомлення
Drool 
VIP


З нами з: 17.04.10
Востаннє: 18.04.19
Повідомлень: 1513

2018-11-19 12:13  
Дивовижний Ізраїль (Сезон 1) / Wild Israel (Season 1) (2016) AVC

Жанр: документальний
Країна: США



Телеканал / кіностудія: Smithsonian Earth
Режисер: Ійяль Бартов
Сюжет:
Подорож від неймовірно красивих берегів Червоного моря до палаючої пустелі Негев. Ізраїль може похвалитися різноманітним природним ландшафтом. Дослідіть величезний калейдоскоп тваринного та рослинного життя, який заповнює його дивовижну топографію та простори.
Перелік серій
01. Пустеля Негев / Negev Desert - From the Ramon Crater to the Arava Valley
Покриваючи більше половини Ізраїлю, пустеля Негев - це місце суворих крайнощів, де флора і фауна повинні пристосуватися до звивистих літніх і лютих зим. Погляньте на цілий рік постійних пошуків та виживання знайомих нам звірів.
02. Життя навколо Мертвого моря / The Living World Around the Dead Sea
У Юдейської пустелі не такі масштаби як у пустелі Негев, але попри це, їй притаманні не менш екстремальні особливості. Вона є сусідом найнижчого моря у світі, сліпучою соляною формацією та масивом рослинного та тваринного життя. Погляньте на арабського леопарда, смугасту гієну, та на інших незвичних і винахідливих істот, які процвітають на тлі неймовірної спеки сонця та піску.
03. Незаймана природа Червоного моря / Red Sea Wilderness
На півдні Ізраїлю два надзвичайно різних світи живуть поруч. Тропічне море та древній кораловий із різноманіттям водного життя поряд із жорстоким пустельним ландшафтом, наповненим витривалими рептиліями та не зовсім дружніми деревами акації. Мальовнича частиною Ізраїлю, яку мало хто собі уявляє такою.
04. Маршрути Середземномор'я / Motions of the Mediterranean
З моменту утворення Суецького каналу в 1869 році, до нього неї перемістилося понад 350 видів рослин і морських істот. Зараз більше половини морських видів у Середземному морі це види, які жили в і Червоному морі. Та все ще до кінця невідомі екологічні наслідки для каналу. Зануртесь в новий підводний світ, який є результатом цієї сейсмічної міграції.
05. Міграційне божевілля / Migration Madness
Височіючи над небесами Ізраїлю, пташина міграція приголомшливих розмірів приваблює птахівників з усього світу. Тут є шанс відстежити одну з найважливіших зупинок на шляху міграції птахів - ніяких біноклів не потрібно. Все можна побачити на власні очі у безпосередній близькості.


Тривалість: 5 x 00:48:00
Якість: AVC
Відео:
кодек:
розмір кадру: 1024x576
бітрейт: 2962-5080 кб/с
crf: 20.0

Аудіо:
мова: українська
переклад: одноголосий закадровий
кодек: 2.0
бітрейт: 192 кб/с
Info всієї роздачі
Код:
General
Unique ID                                : 192401793235909830266789828927938455502 (0x90BF3CCC739CDEC0EBD4886548C167CE)
Complete name                            : /mnt/disk/Video/Documental/Wild Israel (2016) AVC [ukr] [UAGet]/E02 Life Around The Dead Sea AVC [Ukr] [UAGet].
Format                                   :
Format version                           : Version 4 / Version 2
File size                                : 1.18 GiB
Duration                                 : 48 min 8 s
Overall bit rate                         : 3 500 kb/s
Encoded date                             : UTC 2018-11-19T06:34:12Z
Writing application                      : HandBrake 1.1.1 2018061800
Writing library                          : Lavf57.7.2

Video
ID                                       : 1
Format                                   : AVC
Format/Info                              : Advanced Video Codec
Format profile                           : [email protected]
Format settings                          : CABAC / 5 Ref Frames
Format settings, CABAC                   : Yes
Format settings, RefFrames               : 5 frames
Codec ID                                 : V_MPEG4/ISO/AVC
Duration                                 : 48 min 8 s
Bit rate                                 : 3 239 kb/s
Width                                    : 1 024 pixels
Height                                   : 576 pixels
Display aspect ratio                     : 16:9
Frame rate mode                          : Constant
Frame rate                               : 23.976 (24000/1001) FPS
Color space                              : YUV
Chroma subsampling                       : 4:2:0
Bit depth                                : 8 bits
Scan type                                : Progressive
Bits/(Pixel*Frame)                       : 0.229
Stream size                              : 1.09 GiB (93%)
Writing library                          : core 155 r2901 7d0ff22
Encoding settings                        : cabac=1 / ref=5 / deblock=1:-3:-3 / analyse=0x3:0x113 / me=hex / subme=8 / psy=1 / psy_rd=1.00:0.15 / mixed_ref=1 / me_range=16 / chroma_me=1 / trellis=2 / 8x8dct=1 / cqm=0 / deadzone=21,11 / fast_pskip=1 / chroma_qp_offset=-3 / threads=90 / lookahead_threads=4 / sliced_threads=0 / nr=0 / decimate=1 / interlaced=0 / bluray_compat=0 / constrained_intra=0 / bframes=3 / b_pyramid=2 / b_adapt=1 / b_bias=0 / direct=3 / weightb=1 / open_gop=0 / weightp=2 / keyint=240 / keyint_min=24 / scenecut=40 / intra_refresh=0 / rc_lookahead=50 / rc=crf / mbtree=1 / crf=20.0 / qcomp=0.60 / qpmin=0 / qpmax=69 / qpstep=4 / vbv_maxrate=62500 / vbv_bufsize=78125 / crf_max=0.0 / nal_hrd=none / filler=0 / ip_ratio=1.40 / aq=1:1.00
Default                                  : Yes
Forced                                   : No
Color range                              : Limited
Color primaries                          : BT.709
Transfer characteristics                 : BT.709
Matrix coefficients                      : BT.709

Audio
ID                                       : 2
Format                                   : AC-3
Format/Info                              : Audio Coding 3
Format settings, Endianness              : Big
Codec ID                                 : A_AC3
Duration                                 : 48 min 8 s
Bit rate mode                            : Constant
Bit rate                                 : 192 kb/s
Channel(s)                               : 2 channels
Channel positions                        : Front: L R
Sampling rate                            : 48.0 kHz
Frame rate                               : 31.250 FPS (1536 SPF)
Bit depth                                : 16 bits
Compression mode                         : Lossy
Stream size                              : 66.1 MiB (5%)
Title                                    : Stereo
Language                                 : Ukrainian
Service kind                             : Complete Main
Default                                  : Yes
Forced                                   : No

General
Unique ID                                : 188027146341803997001874448526344091185 (0x8D74B60DE8BB34FC8579DC84729E7631)
Complete name                            : /mnt/disk/Video/Documental/Wild Israel (2016) AVC [ukr] [UAGet]/E01 The Negev Desert AVC [Ukr] [UAGet].
Format                                   :
Format version                           : Version 4 / Version 2
File size                                : 1.08 GiB
Duration                                 : 48 min 9 s
Overall bit rate                         : 3 218 kb/s
Encoded date                             : UTC 2018-11-19T06:22:27Z
Writing application                      : HandBrake 1.1.1 2018061800
Writing library                          : Lavf57.7.2

Video
ID                                       : 1
Format                                   : AVC
Format/Info                              : Advanced Video Codec
Format profile                           : [email protected]
Format settings                          : CABAC / 5 Ref Frames
Format settings, CABAC                   : Yes
Format settings, RefFrames               : 5 frames
Codec ID                                 : V_MPEG4/ISO/AVC
Duration                                 : 48 min 9 s
Bit rate                                 : 2 962 kb/s
Width                                    : 1 024 pixels
Height                                   : 576 pixels
Display aspect ratio                     : 16:9
Frame rate mode                          : Constant
Frame rate                               : 23.976 (24000/1001) FPS
Color space                              : YUV
Chroma subsampling                       : 4:2:0
Bit depth                                : 8 bits
Scan type                                : Progressive
Bits/(Pixel*Frame)                       : 0.209
Stream size                              : 1 020 MiB (92%)
Writing library                          : core 155 r2901 7d0ff22
Encoding settings                        : cabac=1 / ref=5 / deblock=1:-3:-3 / analyse=0x3:0x113 / me=hex / subme=8 / psy=1 / psy_rd=1.00:0.15 / mixed_ref=1 / me_range=16 / chroma_me=1 / trellis=2 / 8x8dct=1 / cqm=0 / deadzone=21,11 / fast_pskip=1 / chroma_qp_offset=-3 / threads=90 / lookahead_threads=4 / sliced_threads=0 / nr=0 / decimate=1 / interlaced=0 / bluray_compat=0 / constrained_intra=0 / bframes=3 / b_pyramid=2 / b_adapt=1 / b_bias=0 / direct=3 / weightb=1 / open_gop=0 / weightp=2 / keyint=240 / keyint_min=24 / scenecut=40 / intra_refresh=0 / rc_lookahead=50 / rc=crf / mbtree=1 / crf=20.0 / qcomp=0.60 / qpmin=0 / qpmax=69 / qpstep=4 / vbv_maxrate=62500 / vbv_bufsize=78125 / crf_max=0.0 / nal_hrd=none / filler=0 / ip_ratio=1.40 / aq=1:1.00
Default                                  : Yes
Forced                                   : No
Color range                              : Limited
Color primaries                          : BT.709
Transfer characteristics                 : BT.709
Matrix coefficients                      : BT.709

Audio
ID                                       : 2
Format                                   : AC-3
Format/Info                              : Audio Coding 3
Format settings, Endianness              : Big
Codec ID                                 : A_AC3
Duration                                 : 48 min 9 s
Bit rate mode                            : Constant
Bit rate                                 : 192 kb/s
Channel(s)                               : 2 channels
Channel positions                        : Front: L R
Sampling rate                            : 48.0 kHz
Frame rate                               : 31.250 FPS (1536 SPF)
Bit depth                                : 16 bits
Compression mode                         : Lossy
Stream size                              : 66.1 MiB (6%)
Title                                    : Stereo
Language                                 : Ukrainian
Service kind                             : Complete Main
Default                                  : Yes
Forced                                   : No

General
Unique ID                                : 333344134714623315009841814073061130962 (0xFAC7BEBDC709173F7DED1E41A81FC2D2)
Complete name                            : /mnt/disk/Video/Documental/Wild Israel (2016) AVC [ukr] [UAGet]/E05 Migration Madness AVC [Ukr] [UAGet].
Format                                   :
Format version                           : Version 4 / Version 2
File size                                : 1.48 GiB
Duration                                 : 48 min 4 s
Overall bit rate                         : 4 407 kb/s
Encoded date                             : UTC 2018-11-19T07:38:20Z
Writing application                      : HandBrake 1.1.1 2018061800
Writing library                          : Lavf57.7.2

Video
ID                                       : 1
Format                                   : AVC
Format/Info                              : Advanced Video Codec
Format profile                           : [email protected]
Format settings                          : CABAC / 5 Ref Frames
Format settings, CABAC                   : Yes
Format settings, RefFrames               : 5 frames
Codec ID                                 : V_MPEG4/ISO/AVC
Duration                                 : 48 min 4 s
Bit rate                                 : 4 127 kb/s
Width                                    : 1 024 pixels
Height                                   : 576 pixels
Display aspect ratio                     : 16:9
Frame rate mode                          : Constant
Frame rate                               : 23.976 (24000/1001) FPS
Color space                              : YUV
Chroma subsampling                       : 4:2:0
Bit depth                                : 8 bits
Scan type                                : Progressive
Bits/(Pixel*Frame)                       : 0.292
Stream size                              : 1.39 GiB (94%)
Writing library                          : core 155 r2901 7d0ff22
Encoding settings                        : cabac=1 / ref=5 / deblock=1:-3:-3 / analyse=0x3:0x113 / me=hex / subme=8 / psy=1 / psy_rd=1.00:0.15 / mixed_ref=1 / me_range=16 / chroma_me=1 / trellis=2 / 8x8dct=1 / cqm=0 / deadzone=21,11 / fast_pskip=1 / chroma_qp_offset=-3 / threads=90 / lookahead_threads=4 / sliced_threads=0 / nr=0 / decimate=1 / interlaced=0 / bluray_compat=0 / constrained_intra=0 / bframes=3 / b_pyramid=2 / b_adapt=1 / b_bias=0 / direct=3 / weightb=1 / open_gop=0 / weightp=2 / keyint=240 / keyint_min=24 / scenecut=40 / intra_refresh=0 / rc_lookahead=50 / rc=crf / mbtree=1 / crf=20.0 / qcomp=0.60 / qpmin=0 / qpmax=69 / qpstep=4 / vbv_maxrate=62500 / vbv_bufsize=78125 / crf_max=0.0 / nal_hrd=none / filler=0 / ip_ratio=1.40 / aq=1:1.00
Default                                  : Yes
Forced                                   : No
Color range                              : Limited
Color primaries                          : BT.709
Transfer characteristics                 : BT.709
Matrix coefficients                      : BT.709

Audio
ID                                       : 2
Format                                   : AC-3
Format/Info                              : Audio Coding 3
Format settings, Endianness              : Big
Codec ID                                 : A_AC3
Duration                                 : 48 min 4 s
Bit rate mode                            : Constant
Bit rate                                 : 192 kb/s
Channel(s)                               : 2 channels
Channel positions                        : Front: L R
Sampling rate                            : 48.0 kHz
Frame rate                               : 31.250 FPS (1536 SPF)
Bit depth                                : 16 bits
Compression mode                         : Lossy
Stream size                              : 66.0 MiB (4%)
Title                                    : Stereo
Language                                 : Ukrainian
Service kind                             : Complete Main
Default                                  : Yes
Forced                                   : No

General
Unique ID                                : 206680959097353345723078184610691493817 (0x9B7D4E07C48BFF938E292E3CA9372FB9)
Complete name                            : /mnt/disk/Video/Documental/Wild Israel (2016) AVC [ukr] [UAGet]/E03 Red Sea Wilderness AVC [Ukr] [UAGet].
Format                                   :
Format version                           : Version 4 / Version 2
File size                                : 1.76 GiB
Duration                                 : 48 min 1 s
Overall bit rate                         : 5 246 kb/s
Encoded date                             : UTC 2018-11-19T07:06:05Z
Writing application                      : HandBrake 1.1.1 2018061800
Writing library                          : Lavf57.7.2

Video
ID                                       : 1
Format                                   : AVC
Format/Info                              : Advanced Video Codec
Format profile                           : [email protected]
Format settings                          : CABAC / 5 Ref Frames
Format settings, CABAC                   : Yes
Format settings, RefFrames               : 5 frames
Codec ID                                 : V_MPEG4/ISO/AVC
Duration                                 : 48 min 1 s
Bit rate                                 : 4 950 kb/s
Width                                    : 1 024 pixels
Height                                   : 576 pixels
Display aspect ratio                     : 16:9
Frame rate mode                          : Constant
Frame rate                               : 23.976 (24000/1001) FPS
Color space                              : YUV
Chroma subsampling                       : 4:2:0
Bit depth                                : 8 bits
Scan type                                : Progressive
Bits/(Pixel*Frame)                       : 0.350
Stream size                              : 1.66 GiB (94%)
Writing library                          : core 155 r2901 7d0ff22
Encoding settings                        : cabac=1 / ref=5 / deblock=1:-3:-3 / analyse=0x3:0x113 / me=hex / subme=8 / psy=1 / psy_rd=1.00:0.15 / mixed_ref=1 / me_range=16 / chroma_me=1 / trellis=2 / 8x8dct=1 / cqm=0 / deadzone=21,11 / fast_pskip=1 / chroma_qp_offset=-3 / threads=90 / lookahead_threads=4 / sliced_threads=0 / nr=0 / decimate=1 / interlaced=0 / bluray_compat=0 / constrained_intra=0 / bframes=3 / b_pyramid=2 / b_adapt=1 / b_bias=0 / direct=3 / weightb=1 / open_gop=0 / weightp=2 / keyint=240 / keyint_min=24 / scenecut=40 / intra_refresh=0 / rc_lookahead=50 / rc=crf / mbtree=1 / crf=20.0 / qcomp=0.60 / qpmin=0 / qpmax=69 / qpstep=4 / vbv_maxrate=62500 / vbv_bufsize=78125 / crf_max=0.0 / nal_hrd=none / filler=0 / ip_ratio=1.40 / aq=1:1.00
Default                                  : Yes
Forced                                   : No
Color range                              : Limited
Color primaries                          : BT.709
Transfer characteristics                 : BT.709
Matrix coefficients                      : BT.709

Audio
ID                                       : 2
Format                                   : AC-3
Format/Info                              : Audio Coding 3
Format settings, Endianness              : Big
Codec ID                                 : A_AC3
Duration                                 : 48 min 1 s
Bit rate mode                            : Constant
Bit rate                                 : 192 kb/s
Channel(s)                               : 2 channels
Channel positions                        : Front: L R
Sampling rate                            : 48.0 kHz
Frame rate                               : 31.250 FPS (1536 SPF)
Bit depth                                : 16 bits
Compression mode                         : Lossy
Stream size                              : 66.0 MiB (4%)
Title                                    : Stereo
Language                                 : Ukrainian
Service kind                             : Complete Main
Default                                  : Yes
Forced                                   : No

General
Unique ID                                : 59328749975407804293032780429227132109 (0x2CA24D36946740CEDF31EC4E029F04CD)
Complete name                            : /mnt/disk/Video/Documental/Wild Israel (2016) AVC [ukr] [UAGet]/E04 Motions Of The Mediterranean AVC [Ukr] [UAGet].
Format                                   :
Format version                           : Version 4 / Version 2
File size                                : 1.81 GiB
Duration                                 : 48 min 4 s
Overall bit rate                         : 5 379 kb/s
Encoded date                             : UTC 2018-11-19T07:20:49Z
Writing application                      : HandBrake 1.1.1 2018061800
Writing library                          : Lavf57.7.2

Video
ID                                       : 1
Format                                   : AVC
Format/Info                              : Advanced Video Codec
Format profile                           : [email protected]
Format settings                          : CABAC / 5 Ref Frames
Format settings, CABAC                   : Yes
Format settings, RefFrames               : 5 frames
Codec ID                                 : V_MPEG4/ISO/AVC
Duration                                 : 48 min 4 s
Bit rate                                 : 5 080 kb/s
Width                                    : 1 024 pixels
Height                                   : 576 pixels
Display aspect ratio                     : 16:9
Frame rate mode                          : Constant
Frame rate                               : 23.976 (24000/1001) FPS
Color space                              : YUV
Chroma subsampling                       : 4:2:0
Bit depth                                : 8 bits
Scan type                                : Progressive
Bits/(Pixel*Frame)                       : 0.359
Stream size                              : 1.71 GiB (94%)
Writing library                          : core 155 r2901 7d0ff22
Encoding settings                        : cabac=1 / ref=5 / deblock=1:-3:-3 / analyse=0x3:0x113 / me=hex / subme=8 / psy=1 / psy_rd=1.00:0.15 / mixed_ref=1 / me_range=16 / chroma_me=1 / trellis=2 / 8x8dct=1 / cqm=0 / deadzone=21,11 / fast_pskip=1 / chroma_qp_offset=-3 / threads=90 / lookahead_threads=4 / sliced_threads=0 / nr=0 / decimate=1 / interlaced=0 / bluray_compat=0 / constrained_intra=0 / bframes=3 / b_pyramid=2 / b_adapt=1 / b_bias=0 / direct=3 / weightb=1 / open_gop=0 / weightp=2 / keyint=240 / keyint_min=24 / scenecut=40 / intra_refresh=0 / rc_lookahead=50 / rc=crf / mbtree=1 / crf=20.0 / qcomp=0.60 / qpmin=0 / qpmax=69 / qpstep=4 / vbv_maxrate=62500 / vbv_bufsize=78125 / crf_max=0.0 / nal_hrd=none / filler=0 / ip_ratio=1.40 / aq=1:1.00
Default                                  : Yes
Forced                                   : No
Color range                              : Limited
Color primaries                          : BT.709
Transfer characteristics                 : BT.709
Matrix coefficients                      : BT.709

Audio
ID                                       : 2
Format                                   : AC-3
Format/Info                              : Audio Coding 3
Format settings, Endianness              : Big
Codec ID                                 : A_AC3
Duration                                 : 48 min 4 s
Bit rate mode                            : Constant
Bit rate                                 : 192 kb/s
Channel(s)                               : 2 channels
Channel positions                        : Front: L R
Sampling rate                            : 48.0 kHz
Frame rate                               : 31.250 FPS (1536 SPF)
Bit depth                                : 16 bits
Compression mode                         : Lossy
Stream size                              : 66.0 MiB (4%)
Title                                    : Stereo
Language                                 : Ukrainian
Service kind                             : Complete Main
Default                                  : Yes
Forced                                   : No
Скріншоти
Реліз від:
Особиста оцінка: 0 - не дивився


Бронзовий реліз (на рейтинг впливає 75% завантаженого)
 Трекер:    Зареєстрований   

Завантажити / скачати торрент



відео для новачків



 Зареєстрований:   2018-11-19 12:13
 Розмір:   7.31 GB 
 Оцінка:   7/10 (Голосів: 6)
   
Ваш часовий пояс: GMT + 2 Години

Нова тема   Відповісти