Альфа / Alpha (2018) 1080p H.265 Ukr/Eng | Sub Ukr/Eng

Нові коментарі

Нова тема   Відповісти
Автор Повідомлення
-Star-Lord- 
VIP


З нами з: 09.08.18
Востаннє: 24.04.19
Повідомлень: 737

2018-11-19 01:21  
Альфа / Alpha (2018) 1080p H.265 Ukr/Eng | Sub Ukr/Eng

Альфа / Alpha (2018) 1080p H.265 Ukr/Eng | Sub Ukr/Eng


Жанр: драма, пригоди, сімейний
Країна: США
Кінокомпанія: Studio 8
Режисер: Альберт Х'юз
Актори: Коді Сміт-МакФі, Натасія Мальте, Леонор Варела, Йоуханнес Хейкьюр Йоуханнессон, Йенс Хультен, Мерседес Де Ла Зерда, Прія Раджаратнам, Спенсер Богерт, Патрік Фленеган

Сюжет:
20 000 років тому Земля була холодним і незатишним місцем, в якому смерть підстерігала людину на кожному кроці, а життя залежало від того, чи вдалося загнати здобич чи ні. Молодий мисливець із племені, яке за рівнем життя і культури було одним із найбільш розвинених на планеті, виявляється сам на сам з ворожим світом, повним смертельних небезпек. Йому треба зазирнути в обличчя своїм страхам і знайти дорогу додому. І можливо, від результату його подорожі залежить доля всього людства.


Тривалість: 01:36:30
Якість:
Відео:
кодек: H.265 (HEVC)
розмір кадру: 1920 x 804
бітрейт: 5130 кб/с
бітова глибина: 10 біт
Увага! Перед завантаженням переконайтесь, що ваш пристрій відтворення (та/або ПЗ) підтримує H.265 (HEVC)

Аудіо # 1:
мова: українська
переклад: професійний дубльований
кодек: 5.1
бітрейт: 640 кб/с

Аудіо # 2:
мова: англійська
переклад: оригінал
кодек: 5.1
бітрейт: 448 кб/с

Субтитри # 1:
мова: українська (Forced),
тип: програмні (м'які)
формат: *.srt

Субтитри # 2:
мова: українська (Full),
тип: програмні (м'які)
формат: *.srt

Субтитри # 3:
мова: англійська (Forced),
тип: програмні (м'які)
формат: *.srt

Субтитри # 4:
мова: англійська (Full),
тип: програмні (м'які)
формат: *.srt


Info
Код:
General
Unique ID                                : 215098554295490485950270732508484679794 (0xA1D279840D66809A95685E8E29993872)
Complete name                            : E:\Video\Alpha (2018) 1080p H.265 [UKR_ENG].
Format                                   :
Format version                           : Version 4 / Version 2
File size                                : 4.19 GiB
Duration                                 : 1 h 36 min
Overall bit rate                         : 6 221 kb/s
Movie name                               : Alpha (2018)
Encoded date                             : UTC 2018-12-21 13:42:55
Writing application                      : v20.0.0 ('I Am The Sun') 32-bit
Writing library                          : libebml v1.3.5 + v1.4.8
Cover                                    : Yes
Attachments                              : cover

Video
ID                                       : 1
Format                                   : HEVC
Format/Info                              : High Efficiency Video Coding
Codec ID                                 : V_MPEGH/ISO/HEVC
Duration                                 : 1 h 36 min
Bit rate                                 : 5 130 kb/s
Width                                    : 1 920 pixels
Height                                   : 804 pixels
Display aspect ratio                     : 2.40:1
Frame rate mode                          : Constant
Frame rate                               : 23.976 (24000/1001) FPS
Color space                              : YUV
Chroma subsampling                       : 4:2:0
Bit depth                                : 10 bits
Bits/(Pixel*Frame)                       : 0.139
Stream size                              : 3.46 GiB (82%)
Title                                    : Alpha (2018)
Writing library                          : x265 2.8+74-fd517ae68f93:[Windows][GCC 7.3.0][64 bit] 10bit
Encoding settings                        : cpuid=1111039 / frame-threads=13 / numa-pools=12 / wpp / no-pmode / no-pme / no-psnr / no-ssim / log-level=3 / input-csp=1 / input-res=1920x804 / interlace=0 / total-frames=0 / level-idc=41 / high-tier=1 / uhd-bd=0 / ref=7 / allow-non-conformance / no-repeat-headers / annexb / no-aud / no-hrd / info / hash=0 / no-temporal-layers / no-open-gop / min-keyint=24 / keyint=240 / gop-lookahead=0 / bframes=9 / b-adapt=2 / b-pyramid / bframe-bias=0 / rc-lookahead=40 / lookahead-slices=5 / scenecut=40 / radl=0 / no-intra-refresh / ctu=64 / min-cu-size=8 / rect / amp / max-tu-size=32 / tu-inter-depth=1 / tu-intra-depth=1 / limit-tu=0 / rdoq-level=0 / dynamic-rd=0.00 / no-ssim-rd / signhide / no-tskip / nr-intra=0 / nr-inter=0 / no-constrained-intra / no-strong-intra-smoothing / max-merge=2 / limit-refs=3 / no-limit-modes / me=3 / subme=7 / merange=57 / temporal-mvp / weightp / no-weightb / no-analyze-src-pics / deblock=-2:-2 / no-sao / no-sao-non-deblock / rd=3 / no-early-skip / rskip / no-fast-intra / no-tskip-fast / no-cu-lossless / no-b-intra / no-splitrd-skip / rdpenalty=0 / psy-rd=2.00 / psy-rdoq=0.00 / no-rd-refine / no-lossless / cbqpoffs=0 / crqpoffs=0 / rc=crf / crf=17.0 / qcomp=0.70 / qpstep=4 / stats-write=0 / stats-read=0 / vbv-maxrate=50000 / vbv-bufsize=50000 / vbv-init=0.9 / crf-max=0.0 / crf-min=0.0 / ipratio=1.40 / pbratio=1.30 / aq-mode=1 / aq-strength=1.00 / cutree / zone-count=0 / no-strict-cbr / qg-size=32 / no-rc-grain / qpmax=69 / qpmin=0 / no-const-vbv / sar=1 / overscan=0 / videoformat=5 / range=0 / colorprim=1 / transfer=1 / colormatrix=1 / chromaloc=0 / display-window=0 / max-cll=0,0 / min-luma=0 / max-luma=1023 / log2-max-poc-lsb=8 / vui-timing-info / vui-hrd-info / slices=1 / no-opt-qp-pps / no-opt-ref-list-length-pps / no-multi-pass-opt-rps / scenecut-bias=0.05 / no-opt-cu-delta-qp / no-aq-motion / no-hdr / no-hdr-opt / no-dhdr10-opt / no-idr-recovery-sei / analysis-reuse-level=5 / scale-factor=0 / refine-intra=0 / refine-inter=0 / refine-mv=0 / no-limit-sao / ctu-info=0 / no-lowpass-dct / refine-mv-type=0 / copy-pic=1 / max-ausize-factor=1.0 / no-dynamic-refine / no-single-sei
Default                                  : Yes
Forced                                   : No
Color range                              : Limited
Color primaries                          : BT.709
Transfer characteristics                 : BT.709
Matrix coefficients                      : BT.709

Audio #1
ID                                       : 2
Format                                   : AC-3
Format/Info                              : Audio Coding 3
Codec ID                                 : A_AC3
Duration                                 : 1 h 36 min
Bit rate mode                            : Constant
Bit rate                                 : 640 kb/s
Channel(s)                               : 6 channels
Channel positions                        : Front: L C R, Side: L R, LFE
Sampling rate                            : 48.0 kHz
Frame rate                               : 31.250 FPS (1536 SPF)
Bit depth                                : 16 bits
Compression mode                         : Lossy
Stream size                              : 442 MiB (10%)
Title                                    : ПД - Blu-Ray
Language                                 : Ukrainian
Service kind                             : Complete Main
Default                                  : Yes
Forced                                   : Yes

Audio #2
ID                                       : 3
Format                                   : AC-3
Format/Info                              : Audio Coding 3
Codec ID                                 : A_AC3
Duration                                 : 1 h 36 min
Bit rate mode                            : Constant
Bit rate                                 : 448 kb/s
Channel(s)                               : 6 channels
Channel positions                        : Front: L C R, Side: L R, LFE
Sampling rate                            : 48.0 kHz
Frame rate                               : 31.250 FPS (1536 SPF)
Bit depth                                : 16 bits
Compression mode                         : Lossy
Stream size                              : 309 MiB (7%)
Title                                    : Original
Language                                 : English
Service kind                             : Complete Main
Default                                  : No
Forced                                   : No

Text #1
ID                                       : 4
Format                                   : UTF-8
Codec ID                                 : S_TEXT/UTF8
Codec ID/Info                            : UTF-8 Plain Text
Duration                                 : 1 h 27 min
Bit rate                                 : 0 b/s
Count of elements                        : 3
Stream size                              : 100 Bytes (0%)
Title                                    : Forced
Language                                 : Ukrainian
Default                                  : Yes
Forced                                   : No

Text #2
ID                                       : 5
Format                                   : UTF-8
Codec ID                                 : S_TEXT/UTF8
Codec ID/Info                            : UTF-8 Plain Text
Duration                                 : 1 h 34 min
Bit rate                                 : 11 b/s
Count of elements                        : 219
Stream size                              : 8.08 KiB (0%)
Title                                    : Full
Language                                 : Ukrainian
Default                                  : No
Forced                                   : No

Text #3
ID                                       : 6
Format                                   : UTF-8
Codec ID                                 : S_TEXT/UTF8
Codec ID/Info                            : UTF-8 Plain Text
Duration                                 : 1 h 24 min
Bit rate                                 : 6 b/s
Count of elements                        : 214
Stream size                              : 4.31 KiB (0%)
Title                                    : Forced
Language                                 : English
Default                                  : No
Forced                                   : No

Text #4
ID                                       : 7
Format                                   : UTF-8
Codec ID                                 : S_TEXT/UTF8
Codec ID/Info                            : UTF-8 Plain Text
Duration                                 : 1 h 24 min
Bit rate                                 : 6 b/s
Count of elements                        : 214
Stream size                              : 4.31 KiB (0%)
Title                                    : Full
Language                                 : English
Default                                  : No
Forced                                   : No

Menu
00:00:00.000                             : en:1
00:07:43.713                             : en:2
00:10:56.071                             : en:3
00:16:56.639                             : en:4
00:21:43.299                             : en:5
00:25:54.967                             : en:6
00:32:36.618                             : en:7
00:38:19.251                             : en:8
00:42:37.383                             : en:9
00:47:54.323                             : en:10
00:54:07.404                             : en:11
00:59:27.222                             : en:12
01:07:08.975                             : en:13
01:14:08.727                             : en:14
01:18:56.264                             : en:15
01:25:42.294                             : en:16
Світлини




Джерело:
Особиста оцінка: 0 - не дивився


>>> Усі мої релізи <<<



 Трекер:    Зареєстрований   

Завантажити / скачати фільм українською



відео для новачків



 Зареєстрований:   2018-12-21 16:56
 Розмір:   4.19 GB 
 Оцінка фільму:   8.2/10 (Голосів: 18)
   
Інші релізи
   Альфа / Alpha (2018) DVD9 Eng/Mag/PolRus/Ukr | Sub Multi Bochys  0 / 0   5.2 GB   2019-04-16 22:38 
   Альфа / Alpha (2018) antik_2008  12 / 0   1.46 GB   2018-12-15 18:52 
   Альфа / Alpha (2018) AVC Ukr/Eng | Sub Ukr/Eng 11FrYkT  13 / 0   1.94 GB   2018-12-15 14:37 
   Альфа / Alpha (2018) 720p Ukr/Eng | Sub Ukr/Eng 11FrYkT  6 / 0   3.97 GB   2018-12-15 11:57 
   Альфа / Alpha (2018) 1080p Ukr/Eng | Sub Ukr/Eng igor911  7 / 0   8.71 GB   2018-12-15 10:11 
   Альфа / Alpha (2018) Remux 1080p Ukr/Eng | Sub Ukr/Eng igor911  7 / 0   17.66 GB   2018-12-15 04:07 
Andy_H 
Новенький


З нами з: 20.03.12
Востаннє: 17.04.19
Повідомлень: 9

2018-12-01 19:02  
Зйомки гарні.
Сюжет і історична достовірність не витримають жодної критики, мене вистачило на 40 хв.
В результаті маємо кіно для дітей.

-Star-Lord- 
VIP


З нами з: 09.08.18
Востаннє: 24.04.19
Повідомлень: 737

2018-12-21 16:56  
Оновлення:
-> заміна звуку на 5.1 з Blu-Ray

MikeZah 
Новенький


З нами з: 09.06.11
Востаннє: 24.04.19
Повідомлень: 18

2018-12-23 20:50  
Та які там 40 хвилин. На 3-й хвилині фільму мужики із 20 тис. річної історії полюють на доісторичних звірів у КУРТКАХ із КАПЮШОНОМ, ПІДБИТИХ ХУТРОМ, мало не від Версаччі... Режисери фільму ще забули про капелюхи і лайкові рукавички))))
OstapenkoOleksii 
Новенький


З нами з: 10.12.18
Востаннє: 20.04.19
Повідомлень: 1

2019-02-02 21:23  
На телевизоре Самсунг этот релиз не открылся. Единственный фильм за 3 года который не открылся на телевизоре.
igor911 
Відео Гуртом
Відео Гуртом


З нами з: 18.01.08
Востаннє: 25.04.19
Повідомлень: 12341

2019-02-02 21:42  
OstapenkoOleksii, надалі українською, будь ласка
Цитата:
2. Правила та обмеження форуму

Всім без винятку заборонено:
2.1 Спілкуватися іншою мовою, аніж літературною українською

-Star-Lord- 
VIP


З нами з: 09.08.18
Востаннє: 24.04.19
Повідомлень: 737

2019-02-02 22:23  
OstapenkoOleksii написано:
На телевизоре Самсунг этот релиз не открылся. Единственный фильм за 3 года который не открылся на телевизоре.

Старенький напевно.

Ваш часовий пояс: GMT + 2 Години

Нова тема   Відповісти