My Little Pony: Дружба - це диво / My Little Pony: Friendship is Magic (Сезон 8) (2018) 1080p Ukr/Eng | sub Eng

Нові коментарі

Нова тема   Відповісти
Останній раз роздавалося nashbridges (2021-04-14)
Автор Повідомлення
sergiyko.5 
Забанено
Забанено


З нами з: 25.02.16
Востаннє: 29.10.20
Повідомлень: 3648

2018-11-19 00:50  


My Little Pony: Дружба - це диво / My Little Pony: Friendship is Magic (Сезон 8) (2018) 1080p Ukr/Eng | sub Eng

My Little Pony: Дружба - це диво / My Little Pony: Friendship is Magic (Сезон 8) (2018) 1080p Ukr/Eng | sub Eng

Жанр: фентезі, пригоди, комедія, сімейний
Країна: DHX Media, Studio B Productions, Hasbro Studios
Режисер: Лорен Фауст, Джейсон Тіссен, Джеймс Вуттон, Джим Міллер, Денні Лу, Тім Стабі
Ролі озвучують: Тара Стронґ, Ешлі Болл, Андреа Лібман, Табіта Сен Жермен, Кеті Візлак, Ніколь Олівер

Сюжет:
У країні Еквестрія, у казковому місті Понівіль, у мирі та гармонії живуть Твайлайт та її подруги. Мешкають там не тільки поні, але й пегаси, єдинороги і, навіть, алінкорни – єдинороги з крилами, що володіють неймовірною магічною силою. Усі вони – частина величезного світу, яким вони ж і правлять. Магія, чудеса та неймовірні пригоди відбуваються тут на кожному кроці і наші допитливі друзі завжди поспішають з'ясувати, що ж сталося.




Тривалість: 1 серія: 22:05 (цілком серій: 26 з 26)
Якість:

Відео: кодек: розмір кадру: 1920 х 1080 бітрейт: 5100 кб/с
Аудіо #1: мова: українська переклад: професійний дубльований кодек: 2.0ch бітрейт: 192 кб/с [ Stereo ]
Озвучення:
Аудіо #2: мова: англійська переклад: оригінал кодек: 5.1ch бітрейт: 384 кб/с
Субтитри: мова: англійська тип: програмні (м’які) формат: *.

Примітка: україньська доріжка записана з супутникової трансляції телеканала ПлюсПлюс і синхронізована під HD відео.
Перелік серій:
01 Шкільна бентега. Частина перша / School Daze. Part 1
02 Шкільна бентега. Частина друга / School Daze. Part 2
03 Пара для Мод/ The Maud Couple
04 Удавай поки це стане реальністю / Fake It 'Til You Make It
05 Бабуся відривається / Grannies Gone Wild
06 На суші і на морі / Surf and-or Turf
07 Коняча вистава / Horse Play
08 Карта батьків / The Parent Map
09 Незавершений пункт / Non-Compete Clause
10 Нерозривні стосунки / The Break Up Breakdown
11 Линяння / Molt Down
12 Нагорода за досягнення / Marks for Effort
13 Злі двійники / The Mean 6
14 Директорське питання / A Matter of Principals
15 Свято вогнища / The Hearth's Warming Club
16 Університет дружби / Friendship University
17 Кінець дружбі / The End in Friend
18 Музика Якіті / Yakity-Sax
19 Шлях до дружби / Road to Friendship
20 Вошаути / The Washouts
21 Рокхуф у сучасному світі / A Rockhoof and a Hard Place
22 Що ховається внизу / What Lies Beneath
23 Обітниця мовчання / Sounds of Silence
24 Тато знає краще / Father Knows Beast
25 Знищення школи. Частина перша / School Raze. Part 1
26 Знищення школи. Частина друга / School Raze. Part 2
Про файл:
General
Unique ID : 335755190026847447774247142094349237913 (0xFC9818F23219E15E6D5F1AC977737E99)
Complete name : E:\MULTFILMS\My Little Pony. Friendship Is Magic S08 1080p\My Little Pony.S08E18.Yakity-Sax.1080p..
Format :
Format version : Version 4
File size : 898 MiB
Duration : 22 min 5 s
Overall bit rate : 5 683 kb/s
Movie name : My Little Pony. Friendship Is Magic S08 1080p by sergiyko
Encoded date : UTC 2018-11-18 22:33:24
Writing application : v28.1.0 ('Morning Child') 64-bit
Writing library : libebml v1.3.6 + v1.4.9

Video
ID : 1
Format : AVC
Format/Info : Advanced Video Codec
Format profile : [email protected]
Format settings : CABAC / 4 Ref Frames
Format settings, CABAC : Yes
Format settings, ReFrames : 4 frames
Codec ID : V_MPEG4/ISO/AVC
Duration : 22 min 5 s
Bit rate : 5 105 kb/s
Width : 1 920 pixels
Height : 1 080 pixels
Display aspect ratio : 16:9
Frame rate mode : Constant
Frame rate : 23.976 (24000/1001) FPS
Color space : YUV
Chroma subsampling : 4:2:0
Bit depth : 8 bits
Scan type : Progressive
Bits/(Pixel*Frame) : 0.103
Stream size : 806 MiB (90%)
Title : S08E18.Yakity-Sax
Language : English
Default : Yes
Forced : No
Color range : Limited
Color primaries : BT.709
Transfer characteristics : BT.709
Matrix coefficients : BT.709

Audio #1
ID : 2
Format : AC-3
Format/Info : Audio Coding 3
Commercial name : Dolby Digital
Codec ID : A_AC3
Duration : 22 min 5 s
Bit rate mode : Constant
Bit rate : 192 kb/s
Channel(s) : 2 channels
Channel layout : L R
Sampling rate : 48.0 kHz
Frame rate : 31.250 FPS (1536 SPF)
Bit depth : 16 bits
Compression mode : Lossy
Stream size : 30.3 MiB (3%)
Title : DUB 2ch | ПлюсПлюс
Language : Ukrainian
Service kind : Complete Main
Default : Yes
Forced : Yes

Audio #2
ID : 3
Format : AC-3
Format/Info : Audio Coding 3
Commercial name : Dolby Digital
Codec ID : A_AC3
Duration : 22 min 5 s
Bit rate mode : Constant
Bit rate : 384 kb/s
Channel(s) : 6 channels
Channel layout : L R C LFE Ls Rs
Sampling rate : 48.0 kHz
Frame rate : 31.250 FPS (1536 SPF)
Bit depth : 16 bits
Compression mode : Lossy
Stream size : 60.7 MiB (7%)
Title : Original
Language : English
Service kind : Complete Main
Default : No
Forced : No

Text
ID : 4
Format :
Codec ID : S_TEXT/
Codec ID/Info : Advanced Sub Station Alpha
Duration : 21 min 8 s
Bit rate : 113 b/s
Count of elements : 315
Compression mode : Lossless
Stream size : 17.6 KiB (0%)
Title : Eng
Language : English
Default : No
Forced : No
Скріншоти:



Автор запису/зведення: sergiyko


Бронзовий реліз (на рейтинг впливає 75% завантаженого)
 Трекер:    Зареєстрований   

Завантажити / скачати мультфільм українською



відео для новачків



 Зареєстрований:   2018-12-17 13:50
 Розмір:   22.85 GB 
 Оцінка мультсеріалу:   10/10 (Голосів: 8)
   
sergiyko.5 
Забанено
Забанено


З нами з: 25.02.16
Востаннє: 29.10.20
Повідомлень: 3648

2018-12-07 20:14  
Додав 3-9 серії.
odin_doma2 
Свій


З нами з: 22.07.08
Востаннє: 14.04.21
Повідомлень: 75

2018-12-08 19:22  
sergiyko.5
скажіть, будь ласка, чи буде оновлено сусідня роздача першими серіями - https://toloka.to/t96485?

sergiyko.5 
Забанено
Забанено


З нами з: 25.02.16
Востаннє: 29.10.20
Повідомлень: 3648

2018-12-09 12:08  
odin_doma2
Оновив сусідній реліз - https://toloka.to/t96485

sergiyko.5 
Забанено
Забанено


З нами з: 25.02.16
Востаннє: 29.10.20
Повідомлень: 3648

2018-12-17 13:51  
Додав відсутні серії. Сезон повний. Приємного перегляду!
Ваш часовий пояс: GMT + 2 Години

Нова тема   Відповісти