Останній замок / The Last Castle (2001) D-TheaterRip-AVC 720p 2xUkr/Eng | Sub Eng

Нові коментарі

Нова тема   Відповісти
Останній раз роздавалося HEKPOMAH (2020-08-05)
Автор Повідомлення
Anonymous 







2018-11-18 23:16  
Останній замок / The Last Castle (2001) D-TheaterRip-AVC 720p 2xUkr/Eng | Sub Eng

Останній замок / The Last Castle (2001) D-TheaterRip-AVC 720p 2xUkr/Eng | Sub Eng


Жанр: драма, трилер, пригодницький
Країна: США



Кінокомпанія: DreamWorks SKG, Robert Lawrence Productions
Режисер: Род Лурі / Rod Lurie
Актори: Роберт Редфорд / Robert Redford, Джеймс Гандольфіні / James Gandolfini, Марк Руффало / Mark Ruffalo, Делрой Ліндо / Delroy Lindo, Стів Бертон / Steve Burton, Пол Келдерон / Paul Calderon, Семюел Болл / Samuel Ball, Джеремі Чайлдз / Jeremy Childs, Кліфтон Коллінз мол. / Clifton Collins Jr.

Сюжет:
Сталося так, що генерал Ервін - заслужений солдат і ветеран багатьох воєн, який відслужив батьківщині вірою і правдою, став в'язнем тюрми суворого режиму. За всю свою кар'єру генерал припустився лише однієї невиправної помилки, яка обернулася для нього ганебним судом військового трибуналу й десятьма роками ув'язнення.
Але Юджин стійко прийняв цей удар долі. Змирившись зі своєю недолею, розжалуваний офіцер вступив у стіни в'язниці з єдиним наміром - відбути свій термін і повернутися додому. Але все склалося інакше... Ервін робить шокуюче відкриття: у в'язниці холоднокровно вбивають ув'язнених.
За цими кривавими злочинами стоїть жорстокий комендант тюрми - полковник Вінтер (Джеймс Гандольфіні). І тоді генерал вирішує прийняти на себе командування востаннє, ставши на чолі відчайдушного повстання розгніваних в'язнів...


Тривалість: 02:11:26
Якість:
Відео:
кодек:
розмір кадру: 1280х 532
бітрейт: 5 534 кб/с

Аудіо # 1:
мова: українська
переклад: багатоголосий закадровий
кодек: 2.0
бітрейт: 192 кб/с

Аудіо # 2:
мова: українська
переклад: двоголосий закадровий
кодек: 5.1
бітрейт: 384 кб/с

Аудіо # 3:
мова: англійська
переклад: оригінал
кодек: 5.1
бітрейт: 384 кб/с

Субтитри:
мова: англійська
тип: програмні (м'які)
формат: *.srt
Info
General
Unique ID : 38674144118752330027781286824307854468 (0x1D185E856921A001DD2B2CD1B05C0C84)
Complete name : E:\REC\tmp\The Last Castle (2001) D-TheaterRip 720p [2xUkr.Eng].
Format :
Format version : Version 4 / Version 2
File size : 5.96 GiB
Duration : 2 h 11 min
Overall bit rate : 6 494 kb/s
Encoded date : UTC 2018-11-18 19:42:09
Writing application : v21.0.0 ('Tardigrades Will Inherit The Earth') 64-bit
Writing library : libebml v1.3.5 + v1.4.8

Video
ID : 1
Format : AVC
Format/Info : Advanced Video Codec
Format profile : [email protected]
Format settings, CABAC : Yes
Format settings, ReFrames : 12 frames
Codec ID : V_MPEG4/ISO/AVC
Duration : 2 h 11 min
Bit rate : 5 534 kb/s
Width : 1 280 pixels
Height : 532 pixels
Display aspect ratio : 2.40:1
Frame rate mode : Constant
Frame rate : 23.976 FPS
Color space : YUV
Chroma subsampling : 4:2:0
Bit depth : 8 bits
Scan type : Progressive
Bits/(Pixel*Frame) : 0.339
Stream size : 5.08 GiB (85%)
Title : Останній замок / The Last Castle (2001) D-TheaterRip-AVC 2xUkr/Eng | Sub Eng
Writing library : core 76 r1271M 496d79d
Encoding settings : cabac=1 / ref=12 / deblock=1:-1:-1 / analyse=0x3:0x113 / me=umh / subme=9 / psy=1 / psy_rd=1.3:0.1 / mixed_ref=1 / me_range=24 / chroma_me=1 / trellis=2 / 8x8dct=1 / cqm=0 / deadzone=21,11 / chroma_qp_offset=-3 / threads=3 / nr=0 / decimate=1 / mbaff=0 / bframes=3 / b_pyramid=0 / b_adapt=2 / b_bias=0 / direct=3 / wpredb=1 / keyint=250 / keyint_min=25 / scenecut=40 / rc_lookahead=0 / rc=2pass / mbtree=0 / bitrate=5534 / ratetol=1.0 / qcomp=0.60 / qpmin=10 / qpmax=51 / qpstep=4 / cplxblur=20.0 / qblur=0.5 / vbv_maxrate=50000 / vbv_bufsize=50000 / ip_ratio=1.40 / pb_ratio=1.30 / aq=1:1.00
Language : English
Default : Yes
Forced : No

Audio #1
ID : 2
Format : AC-3
Format/Info : Audio Coding 3
Mode extension : CM (complete main)
Format settings, Endianness : Big
Codec ID : A_AC3
Duration : 2 h 11 min
Bit rate mode : Constant
Bit rate : 192 kb/s
Channel(s) : 2 channels
Channel positions : Front: L R
Sampling rate : 48.0 kHz
Frame rate : 31.250 FPS (1536 spf)
Bit depth : 16 bits
Compression mode : Lossy
Stream size : 180 MiB (3%)
Title : Inter
Language : Ukrainian
Default : Yes
Forced : No

Audio #2
ID : 3
Format : AC-3
Format/Info : Audio Coding 3
Mode extension : CM (complete main)
Format settings, Endianness : Big
Codec ID : A_AC3
Duration : 2 h 11 min
Bit rate mode : Constant
Bit rate : 384 kb/s
Channel(s) : 6 channels
Channel positions : Front: L C R, Side: L R, LFE
Sampling rate : 48.0 kHz
Frame rate : 31.250 FPS (1536 spf)
Bit depth : 16 bits
Compression mode : Lossy
Stream size : 360 MiB (6%)
Title : ICTV
Language : Ukrainian
Default : No
Forced : No

Audio #3
ID : 4
Format : AC-3
Format/Info : Audio Coding 3
Mode extension : CM (complete main)
Format settings, Endianness : Big
Codec ID : A_AC3
Duration : 2 h 11 min
Bit rate mode : Constant
Bit rate : 384 kb/s
Channel(s) : 6 channels
Channel positions : Front: L C R, Side: L R, LFE
Sampling rate : 48.0 kHz
Frame rate : 31.250 FPS (1536 spf)
Bit depth : 16 bits
Compression mode : Lossy
Stream size : 360 MiB (6%)
Title : Original
Language : Ukrainian
Default : No
Forced : No

Text
ID : 5
Format : UTF-8
Codec ID : S_TEXT/UTF8
Codec ID/Info : UTF-8 Plain Text
Duration : 2 h 10 min
Bit rate : 56 b/s
Count of elements : 1434
Stream size : 54.3 KiB (0%)
Language : English
Default : Yes
Forced : No
Скріншоти




Джерело: &


Срібний реліз (на рейтинг впливає 50% завантаженого)
 Трекер:    Зареєстрований   

Завантажити / скачати фільм українською



відео для новачків



 Зареєстрований:   2018-11-18 23:25
 Розмір:   5.96 GB 
 Оцінка фільму:   9.5/10 (Голосів: 6)
   
Ваш часовий пояс: GMT + 2 Години

Нова тема   Відповісти