Фріки та задроти (Сезон 1, Серія 1) / Freaks and Geeks (Season 1, Episode 1) (2000) AVC

Нові коментарі

Нова тема   Відповісти
Останній раз роздавалося CaHuK (2018-12-11)
Автор Повідомлення
Bezverh 
Свій


З нами з: 04.09.18
Востаннє: 08.12.18
Повідомлень: 52

2018-11-18 22:10  
Фріки та задроти (Сезон 1, Серія 1) / Freaks and Geeks (Season 1, Episode 1) (2000) AVC

Фріки та задроти (Сезон 1, Серія 1) / Freaks and Geeks (Season 1, Episode 1) (2000) AVC


Жанр: комедія, драма
Країна: США


Кінокомпанія / телеканал: NBC
Режисер: Пол Фейг
Актори/ролі озвучують: Лінда Карделіні, Джон Френсіс Дейлі, Джеймс Франко, Сем Левайн, Джейсон Сігел, Мартін Стар

Сюжет:
Історія в серіалі відбувається в 1980 році і розгортається навколо Ліндсі Вієр і її молодшого брата Сема, учнів старшої школи у вигаданому містечку неподалік від Детройта. Ліндсі, старанна учениця і учасниця математичних олімпіад, проводить час в компанії «фріків», через закоханості в чарівного, але егоїстичного Деніеля Дезаріо, неформального лідера компанії. Під впливом компанії Ліндсі переживає внутрішні зміни, експериментує з алкоголем і наркотиками, свариться з подругою, що не схвалює її нові захоплення. Паралельно спробам Ліндсі розібратися в собі і вирішити проблеми у відносинах з батьками і братом, сюжетні лінії серіалу демонструють непрості спроби Сема і його компанії «задротів» змінити своє місце в шкільній ієрархії.


Тривалість: 1 серія: 1 серія: ~ 44 хв. (цілком серій: 1/18)
Перелік серій
01. Pilot
Якість: AVC
Відео:
кодек:
розмір кадру: 768 х 576
бітрейт: 1 000 кб/с

Аудіо:
мова: українська
переклад: одноголосий закадровий
кодек: MP3
бітрейт: 256 кб/с

Джерело озвучення:
студія "Інші голоси"
Info
General
Unique ID : 295668202934506756310401037395524775663 (0xDE6F9FE3644A318301A9AF8A3B7EEEEF)
Complete name : /Volumes/HDD/OVERVOICE/OVERVOICEPRJOJECTS/Другие голоса/Freaks and Geeks The Complete Series whip93/Freaks.and.Geeks.S01E01....-whip93UKR1.
Format :
Format version : Version 4 / Version 2
File size : 425 MiB
Duration : 47mn 11s
Overall bit rate : 1 258 Kbps
Encoded date : UTC 2018-11-21 22:11:37
Writing application : v28.0.0 ('Voice In My Head') 64-bit
Writing library : libebml v1.3.6 + v1.4.9
DURATION : 00:47:11.569000000
NUMBER_OF_FRAMES : 108396
NUMBER_OF_BYTES : 90510660
_STATISTICS_WRITING_APP : v28.0.0 ('Voice In My Head') 64-bit
_STATISTICS_WRITING_DATE_UTC : 2018-11-21 22:11:37
_STATISTICS_TAGS : BPS DURATION NUMBER_OF_FRAMES NUMBER_OF_BYTES
Video
ID : 1
Format : AVC
Format/Info : Advanced Video Codec
Format profile : [email protected]
Format settings, CABAC : Yes
Format settings, ReFrames : 16 frames
Codec ID : V_MPEG4/ISO/AVC
Duration : 47mn 11s
Bit rate : 1 000 Kbps
Width : 768 pixels
Height : 576 pixels
Display aspect ratio : 4:3
Frame rate mode : Constant
Frame rate : 23.976 fps
Color space : YUV
Chroma subsampling : 4:2:0
Bit depth : 8 bits
Scan type : Progressive
Bits/(Pixel*Frame) : 0.094
Stream size : 330 MiB (78%)
Writing library : core 148 r2597kMod e86f3a1
Encoding settings : cabac=1 / ref=16 / deblock=1:-2:-2 / analyse=0x3:0x133 / me=umh / subme=10 / psy=1 / fade_compensate=0.00 / psy_rd=1.00:0.03 / mixed_ref=1 / me_range=24 / chroma_me=1 / trellis=2 / 8x8dct=1 / cqm=0 / deadzone=21,11 / fast_pskip=1 / chroma_qp_offset=-6 / threads=12 / lookahead_threads=2 / sliced_threads=0 / nr=0 / decimate=1 / interlaced=0 / bluray_compat=0 / constrained_intra=0 / fgo=0 / bframes=8 / b_pyramid=2 / b_adapt=2 / b_bias=0 / direct=3 / weightb=1 / open_gop=0 / weightp=2 / keyint=250 / keyint_min=23 / scenecut=40 / intra_refresh=0 / rc_lookahead=60 / rc=2pass / mbtree=1 / bitrate=1000 / ratetol=1.0 / qcomp=0.40 / qpmin=0 / qpmax=69 / qpstep=4 / cplxblur=20.0 / qblur=0.5 / vbv_maxrate=20000 / vbv_bufsize=25000 / nal_hrd=none / filler=0 / ip_ratio=1.40 / aq=1:1.00
Language : English
Default : Yes
Forced : No
Color primaries : BT.709
Transfer characteristics : BT.709
Matrix coefficients : BT.709
DURATION : 00:47:11.834000000
NUMBER_OF_FRAMES : 67896
NUMBER_OF_BYTES : 354057522
_STATISTICS_WRITING_APP : v28.0.0 ('Voice In My Head') 64-bit
_STATISTICS_WRITING_DATE_UTC : 2018-11-21 22:11:37
_STATISTICS_TAGS : BPS DURATION NUMBER_OF_FRAMES NUMBER_OF_BYTES
Audio
ID : 2
Format : MPEG Audio
Format version : Version 1
Format profile : Layer 3
Mode : Joint stereo
Codec ID : A_MPEG/L3
Codec ID/Hint : MP3
Duration : 47mn 11s
Bit rate mode : Constant
Bit rate : 256 Kbps
Channel(s) : 2 channels
Sampling rate : 44.1 KHz
Compression mode : Lossy
Stream size : 86.4 MiB (20%)
Default : Yes
Forced : No
Скріншоти:


ТРЕЙЛЕР:



Якщо у вас є бажання підтримати озвучення, завітайте на сайт:



Джерело:

Особиста оцінка: 10 - без зайвих вагань рекомендую всім!


Авторський реліз (завантажувати можна без реєстрації)
 Трекер:    Зареєстрований   

Завантажити / скачати серіал українською



відео для новачків



 Зареєстрований:   2018-12-03 13:27
 Розмір:   425 MB 
 Оцінка серіалу:   7.8/10 (Голосів: 4)
   
leicheman 
Відео Гуртом - підтримка та поширення
Відео Гуртом - підтримка та поширення


З нами з: 03.07.14
Востаннє: 11.12.18
Повідомлень: 2991

2018-11-19 14:41  
Якщо фріків не перекладаєте, то навіщо гіків тоді перекладати? зараз 2018 і усі знають і без перекладу хто вони такі =)

А так, дякую за озвучення. Надіюсь ви не покинете серіали, за які взялися.

troubless 
Частий відвідувач


З нами з: 14.06.11
Востаннє: 10.12.18
Повідомлень: 49

2018-11-19 19:03  
У Вас там дві доріжки і українська доріжка розміщена другою.
Bezverh 
Свій


З нами з: 04.09.18
Востаннє: 08.12.18
Повідомлень: 52

2018-11-19 23:54  
troubless
дякую!виправлю

Додано через 39 секунд:

leicheman
я теж маю надію що мене вистаче )))

Додано через 5 хвилин 46 секунд:

Якби ж то у мене зявився перекладач , усе б прискорилося !

11FrYkT 
Модератор відео


З нами з: 20.02.11
Востаннє: 10.12.18
Повідомлень: 5253

2018-11-20 12:27  
Bezverh написано:
(2000) ..

Виправляється в 2 заголовках, якість скоріше ВЕбріп, також прописати наявність доріжок
Bezverh написано:
бітрейт: 256 кб/с

явно те такий
Bezverh написано:

Audio #1
ID : 2
Format :
Format/Info : Advanced Audio Codec
Format profile : HE- / LC
Codec ID : A_AAC
Duration : 47mn 11s
Channel(s) : 2 channels
Channel positions : Front: L R
Sampling rate : 48.0 KHz / 24.0 KHz
Compression mode : Lossy
Delay relative to video : 31ms
Language : English
Default : No
Forced : No
Audio #2
ID : 3
Format : PCM
Codec ID : A_PCM/INT/LIT
Duration : 47mn 11s
Bit rate mode : Constant
Channel(s) : 2 channels
Sampling rate : 48.0 KHz
Bit depth : 24 bits
Default : Yes
Forced : No


тут є дві доріжки, опишіть їх в тех параметрах, а також укр доріжка повинна бути першою і в контейнері і по відтворенню
Bezverh написано:

кодек: MP3
бітрейт: 256 кб/с


не такі

Цитата:
розмір кадру: 768 х 576

скріншоти не відповідають розміру і так як вони у Вас названі явно не підходить, старі видалити нові завантажити

bot 
робот


З нами з: 30.09.07
Востаннє: 26.05.05
Повідомлень: 20322

2018-11-23 23:28  
Тему перенесено з Неоформлене відео до форуму Телесеріали


11FrYkT

Bezverh 
Свій


З нами з: 04.09.18
Востаннє: 08.12.18
Повідомлень: 52

2018-11-24 23:21  
Народ, реліз завантажується чи нє ? )
11FrYkT 
Модератор відео


З нами з: 20.02.11
Востаннє: 10.12.18
Повідомлень: 5253

2018-11-25 05:48  
Bezverh написано:
Народ, реліз завантажується чи нє ? )

Звісно ні ви ж не на роздачі

Bezverh 
Свій


З нами з: 04.09.18
Востаннє: 08.12.18
Повідомлень: 52

2018-11-25 12:56  
11FrYkT
Шкода.

leicheman 
Відео Гуртом - підтримка та поширення
Відео Гуртом - підтримка та поширення


З нами з: 03.07.14
Востаннє: 11.12.18
Повідомлень: 2991

2018-12-03 14:09  
укр. постер
постер

Bezverh 
Свій


З нами з: 04.09.18
Востаннє: 08.12.18
Повідомлень: 52

2018-12-03 14:34  
leicheman
дякую!
приємно ))

комином2 
Свій


З нами з: 11.11.11
Востаннє: 09.12.18
Повідомлень: 79

2018-12-04 08:50  
Це хоч хтось завантажив, чи щотижня роздача буде перейменуваватися і залишатися здохлою?
Bezverh 
Свій


З нами з: 04.09.18
Востаннє: 08.12.18
Повідомлень: 52

2018-12-04 12:51  
комином2
спокійно.
Були проблемки з торентом , але вони вже вирішені. Все працює

Nikko033 
VIP


З нами з: 31.12.12
Востаннє: 10.12.18
Повідомлень: 501

2018-12-07 22:57  
Bezverh написано:
через закоханості

закоханість
хіба гік - це задрот? мені здається, що треба було залишити оригінал.
а серіал має височеньку оцінку... слід спробувати подивитись Happy

Electroz 
Відео Гуртом - підтримка та поширення
Відео Гуртом - підтримка та поширення


З нами з: 18.09.14
Востаннє: 11.12.18
Повідомлень: 3174

2018-12-07 23:40  
Bezverh
Щось замало скріншотів, додайте ще 20 штук.

Ваш часовий пояс: GMT + 2 Години

Нова тема   Відповісти