Хронос / Cronos (1993) AVC Ukr/Spa | Sub Eng

Нові коментарі

Нова тема   Відповісти
Автор Повідомлення
staf777 
Відео Гуртом - підтримка та поширення
Відео Гуртом - підтримка та поширення


З нами з: 16.11.16
Востаннє: 20.10.19
Повідомлень: 2990

2018-11-18 21:31  
Хронос / Cronos (1993) AVC Ukr/Spa | Sub Eng

Хронос / Cronos (1993) AVC Ukr/Spa | Sub Eng


Жанр: жахи, трилер, драма, комедія
Країна: Мексика



Кінокомпанія: CNCAIMC, Fondo de Fomento a la Calidad Cinematográfica, Grupo Del Toro
Режисер: Гільєрмо Дель Торо
Актори: Федеріко Луппі, Рон Перлман, Клаудіо Брук, Маргарита Ісабель, Тамара Шанат, Даніель Хіменес Качо, Маріо Іван Мартінес, Хуан Карлос Коломбо, Фарнесіо де Берналь, Луїс Родрігес

Сюжет:
«Хронос» - це чудовий маленький пристрій, який втік з Іспанії до Мексики, його винайшов у 1536 році геніальний алхімік Умберто Фальконеллі. Пристрій, що дарує безсмертя ... Правда, в 1937 році життя алхіміка все-таки обірвалося в результаті трагічної випадковості. Тому що «Хронос» обіцяв вічне життя за умови, що власник буде власною кров'ю живити його ...
Майно з маєтку, де жив алхімік, було продано. І ось одного разу господар антикварного магазину старий Хесус Гріс розколупав фігурку ангела і, виявивши всередині дивну коробочку, привів у дію її заводний механізм ... Так у «Хроноса» з'явився новий власник, але не тільки йому був відомий секрет безсмертя ...


Тривалість: 01:32:28
Якість: AVC
Відео:
кодек:
розмір кадру: 1024х576
бітрейт: 3300 кб/с

Аудіо # 1:
мова: українська
переклад: багатоголосий закадровий
кодек: 2.0
бітрейт: 192 кб/с

Аудіо # 2:
мова: іспанська
переклад: оригінал
кодек: 2.0
бітрейт: 256 кб/с

Джерело озвучення:


Субтитри:
мова: англійська
тип: програмні (м'які)
формат: *.srt
MI
General
Unique ID : 111234009782784364871808747161273333464 (0x53AEE41A60B50B362E68CFF32D8976D8)
Complete name : N:\Cronos (1993) AVC [UA][SPA][Hurtom].
Format :
Format version : Version 4 / Version 2
File size : 2.42 GiB
Duration : 1 h 32 min
Overall bit rate : 3 747 kb/s
Movie name : Cronos (1993) AVC [UA][SPA][Hurtom]
Encoded date : UTC 2018-11-18 17:29:54
Writing application : v24.0.0 ('Beyond The Pale') 64-bit
Writing library : libebml v1.3.6 + v1.4.9
Cover : Yes
Attachments : cover.jpg

Video
ID : 1
Format : AVC
Format/Info : Advanced Video Codec
Format profile : [email protected]
Format settings : CABAC / 9 Ref Frames
Format settings, CABAC : Yes
Format settings, ReFrames : 9 frames
Codec ID : V_MPEG4/ISO/AVC
Duration : 1 h 32 min
Bit rate : 3 300 kb/s
Width : 1 024 pixels
Height : 576 pixels
Display aspect ratio : 16:9
Frame rate mode : Constant
Frame rate : 23.976 FPS
Color space : YUV
Chroma subsampling : 4:2:0
Bit depth : 8 bits
Scan type : Progressive
Bits/(Pixel*Frame) : 0.233
Stream size : 2.13 GiB (88%)
Title : Hronos.1993...AVC.MediaClub
Writing library : core 130 r2273 b3065e6
Encoding settings : cabac=1 / ref=9 / deblock=1:-2:-2 / analyse=0x3:0x133 / me=umh / subme=11 / psy=1 / psy_rd=1.00:0.15 / mixed_ref=1 / me_range=32 / chroma_me=1 / trellis=2 / 8x8dct=1 / cqm=0 / deadzone=21,11 / fast_pskip=0 / chroma_qp_offset=-3 / threads=6 / lookahead_threads=1 / sliced_threads=0 / nr=0 / decimate=0 / interlaced=0 / bluray_compat=0 / constrained_intra=0 / bframes=8 / b_pyramid=2 / b_adapt=2 / b_bias=0 / direct=3 / weightb=1 / open_gop=0 / weightp=2 / keyint=240 / keyint_min=23 / scenecut=40 / intra_refresh=0 / rc=2pass / mbtree=0 / bitrate=3300 / ratetol=1.0 / qcomp=0.60 / qpmin=0 / qpmax=69 / qpstep=4 / cplxblur=20.0 / qblur=0.5 / ip_ratio=1.40 / pb_ratio=1.30 / aq=1:1.00
Language : English
Default : Yes
Forced : Yes

Audio #1
ID : 2
Format : AC-3
Format/Info : Audio Coding 3
Codec ID : A_AC3
Duration : 1 h 32 min
Bit rate mode : Constant
Bit rate : 192 kb/s
Channel(s) : 2 channels
Channel positions : Front: L R
Sampling rate : 48.0 kHz
Frame rate : 31.250 FPS (1536 SPF)
Bit depth : 16 bits
Compression mode : Lossy
Stream size : 127 MiB (5%)
Title : [UA-MVO-HTH]
Language : Ukrainian
Service kind : Complete Main
Default : Yes
Forced : Yes

Audio #2
ID : 3
Format : AC-3
Format/Info : Audio Coding 3
Codec ID : A_AC3
Duration : 1 h 32 min
Bit rate mode : Constant
Bit rate : 256 kb/s
Channel(s) : 2 channels
Channel positions : Front: L R
Sampling rate : 48.0 kHz
Frame rate : 31.250 FPS (1536 SPF)
Bit depth : 16 bits
Compression mode : Lossy
Stream size : 169 MiB (7%)
Language : Spanish
Service kind : Complete Main
Default : No
Forced : No

Text
ID : 4
Format : UTF-8
Codec ID : S_TEXT/UTF8
Codec ID/Info : UTF-8 Plain Text
Duration : 1 h 22 min
Bit rate : 15 b/s
Count of elements : 371
Stream size : 9.55 KiB (0%)
Language : English
Default : No
Forced : No

Menu
00:00:00.000 : en:00:00:00.000
00:03:50.814 : en:00:03:50.814
00:06:34.311 : en:00:06:34.311
00:10:30.421 : en:00:10:30.421
00:14:16.230 : en:00:14:16.230
00:16:53.888 : en:00:16:53.888
00:20:15.297 : en:00:20:15.297
00:29:34.439 : en:00:29:34.439
00:34:38.326 : en:00:34:38.326
00:38:35.855 : en:00:38:35.855
00:40:43.775 : en:00:40:43.775
00:45:48.496 : en:00:45:48.496
00:51:46.186 : en:00:51:46.186
00:53:49.101 : en:00:53:49.101
00:55:47.636 : en:00:55:47.636
00:59:57.552 : en:00:59:57.552
01:04:54.140 : en:01:04:54.140
01:06:48.254 : en:01:06:48.254
01:08:13.631 : en:01:08:13.631
01:14:30.800 : en:01:14:30.800
01:18:00.301 : en:01:18:00.301
01:21:01.440 : en:01:21:01.440
01:26:45.742 : en:01:26:45.742





Запис з ТБ - MAKAPOHHIK Синхронізація Romario_O
за український постер подяка пану - chapay
Джерело: &
Особиста оцінка: 8 - мені сподобалося
Хронос / Cronos (1993) AVC Ukr/Spa | Sub Eng Хронос / Cronos (1993) AVC Ukr/Spa | Sub Eng


Срібний реліз (на рейтинг впливає 50% завантаженого)
 Трекер:    Зареєстрований   

Завантажити / скачати фільм українською



відео для новачків



 Зареєстрований:   2018-11-18 21:31
 Розмір:   2.42 GB 
 Оцінка фільму:   9.1/10 (Голосів: 13)
   
Інші релізи
   Хронос / Cronos (1993) Ukr/Spn | Sub Eng Romario_O  4 / 0   1.46 GB   2010-12-25 16:11 
White_123 
Поважний учасник


З нами з: 15.02.13
Востаннє: 16.10.19
Повідомлень: 169

2019-08-13 21:55  
Як на свій час доволі непогана стрічка. В сюжеті звісно є ряд прогалин, але в цілому показано трохи не звичний погляд на вампіризм.
7/10

Ваш часовий пояс: GMT + 2 Години

Нова тема   Відповісти