Втеча з в'язниці Даннемора (Сезон 1, серії 1-4) / Escape at Dannemora (Season 1, episodes 1-4) (2018)

Нові коментарі

Нова тема   Відповісти
Автор Повідомлення
DniproFilm 
Свій


З нами з: 10.10.18
Востаннє: 10.12.18
Повідомлень: 141

2018-11-18 18:19  
Втеча з в'язниці Даннемора (Сезон 1, серії 1-3) / Escape at Dannemora (Season 1, episodes 1-3) (2018)

Втеча з в'язниці Даннемора (Сезон 1, серії 1-4) / Escape at Dannemora (Season 1, episodes 1-4) (2018)


Жанр: драма
Країна: США



Кінокомпанія / телеканал: Red Hour Films, Showtime Networks
Режисер: Бен Стіллер
Актори/ролі озвучують: Бенісіо Дель Торо, Патрисія Аркетт, Пол Дано, Боні Хант, Ерик Ланж, Девід Морс та інші

Сюжет:
Міні-серіал розповість нам, як 51-річна працівниця в'язниці тайкома заводить стосунки з двома молодими в'язнями та допомагає їм втікти.


Тривалість: 1 серія: ~ 60 хв. (цілком серій: 7)
Перелік серій

1. Part 1
2. Part 2
3. Part 3
4. Part 4
5. Part 5
6. Part 6
7. Part 7
Якість:
Відео:
кодек:
розмір кадру: 720x300
бітрейт: ~1800 кб/с

Аудіо # 1:
мова: українська
переклад: багатоголосий закадровий
кодек: 5.1
бітрейт: 384 кб/с

Джерело озвучення:
DniproFilm
Info

Video
ID : 0
Format : MPEG-4 Visual
Format profile : Advanced [email protected]
Format settings : BVOP2
Format settings, BVOP : 2
Format settings, QPel : No
Format settings, GMC : No warppoints
Format settings, Matrix : Default (H.263)
Muxing mode : Packed bitstream
Codec ID :
Codec ID/Hint :
Duration : 1 h 4 min
Bit rate : 1 713 kb/s
Width : 720 pixels
Height : 300 pixels
Display aspect ratio : 2.40:1
Frame rate : 23.976 (24000/1001) FPS
Color space : YUV
Chroma subsampling : 4:2:0
Bit depth : 8 bits
Scan type : Progressive
Compression mode : Lossy
Bits/(Pixel*Frame) : 0.331
Stream size : 785 MiB (81%)
Writing library : 67

Audio
ID : 1
Format : AC-3
Format/Info : Audio Coding 3
Commercial name : Dolby Digital
Codec ID : 2000
Duration : 1 h 4 min
Bit rate mode : Constant
Bit rate : 384 kb/s
Channel(s) : 6 channels
Channel positions : Front: L C R, Side: L R, LFE
Sampling rate : 48.0 kHz
Frame rate : 31.250 FPS (1536 SPF)
Bit depth : 16 bits
Compression mode : Lossy
Stream size : 176 MiB (18%)
Alignment : Aligned on interleaves
Interleave, duration : 42 ms (1.00 video frame)
Interleave, preload duratio : 512 ms
Service kind : Complete Main
Скріншоти

Увага, присутня відео та аудіореклама.

Додано 4 серію.


Джерело: DniproFilm



Авторський реліз (завантажувати можна без реєстрації)
 Трекер:    Зареєстрований   

Завантажити / скачати серіал українською



відео для новачків



 Зареєстрований:   2018-12-09 20:02
 Розмір:   3.38 GB 
 Оцінка серіалу:   10/10 (Голосів: 7)
   
Trjam! 
Частий відвідувач


З нами з: 18.11.16
Востаннє: 10.12.18
Повідомлень: 32

2018-11-19 00:43  
Ви ж попереджайте, яке лайно ви у цьому фільмі рекламуєте...
sinpavla 
Свій


З нами з: 15.06.12
Востаннє: 10.12.18
Повідомлень: 87

2018-11-22 08:53  
красно дякую.засакав рукава, відкрив openshot та видалив рекламу, завдяки якій та ТОЛОЦІ, маю змогу дивитися цей чудовий серіял.сергій
DniproFilm 
Свій


З нами з: 10.10.18
Востаннє: 10.12.18
Повідомлень: 141

2018-12-01 14:38  
УВАГА! РЕЛІЗ ОНОВЛЕНО! (01.12.2018) Додано 2 серію.

DniproFilm 
Свій


З нами з: 10.10.18
Востаннє: 10.12.18
Повідомлень: 141

2018-12-08 16:41  
УВАГА! РЕЛІЗ ОНОВЛЕНО! (08.12.2018) Додано 3 серію.

DniproFilm 
Свій


З нами з: 10.10.18
Востаннє: 10.12.18
Повідомлень: 141

2018-12-09 20:03  
УВАГА! РЕЛІЗ ОНОВЛЕНО! (09.12.2018) Додано 4 серію.

Ваш часовий пояс: GMT + 2 Години

Нова тема   Відповісти