Втеча з в'язниці Даннемора (Сезон 1) / Escape at Dannemora (Season 1) (2018) 1080p Ukr/Eng

Нові коментарі

Нова тема   Відповісти
Автор Повідомлення
DniproFilm 
VIP


З нами з: 10.10.18
Востаннє: 17.08.19
Повідомлень: 258

2018-11-18 19:19  
Втеча з в'язниці Даннемора (Сезон 1) / Escape at Dannemora (Season 1) (2018) 1080р Ukr/Eng

Втеча з в'язниці Даннемора (Сезон 1) / Escape at Dannemora (Season 1) (2018) 1080p Ukr/Eng


Жанр: драма
Країна: США



Кінокомпанія / телеканал: Red Hour Films, Showtime Networks
Режисер: Бен Стіллер
Актори/ролі озвучують: Бенісіо Дель Торо, Патрисія Аркетт, Пол Дано, Боні Хант, Ерик Ланж, Девід Морс та інші

Сюжет:
Міні-серіал розповість нам, як 51-річна працівниця в'язниці потайки заводить стосунки з двома молодими в'язнями та допомагає їм втекти.


Тривалість: 1 серія: ~ 60 хв. (цілком серій: 7)
Перелік серій

1. Part 1
2. Part 2
3. Part 3
4. Part 4
5. Part 5
6. Part 6
7. Part 7
Якість:
Відео:
кодек:
розмір кадру: 1920x800
бітрейт: ~7000 кб/с

Аудіо # 1:
мова: українська
переклад: багатоголосий закадровий
кодек: 5.1
бітрейт: 384 кб/с

Аудіо # 2:
мова: англійська
переклад: оригінал
кодек: 5.1
бітрейт: 640 кб/с

Джерело озвучення:
DniproFilm
Info

Video
ID : 1
Format : AVC
Format/Info : Advanced Video Codec
Format profile : [email protected]
Format settings : CABAC / 4 Ref Frames
Format settings, CABAC : Yes
Format settings, ReFrames : 4 frames
Codec ID : V_MPEG4/ISO/AVC
Duration : 1 h 4 min
Bit rate : 6 848 kb/s
Width : 1 920 pixels
Height : 800 pixels
Display aspect ratio : 2.40:1
Frame rate mode : Constant
Frame rate : 23.976 (24000/1001) FPS
Standard : NTSC
Color space : YUV
Chroma subsampling : 4:2:0
Bit depth : 8 bits
Scan type : Progressive
Bits/(Pixel*Frame) : 0.186
Stream size : 3.07 GiB (87%)
Language : English
Default : Yes
Forced : No
Color range : Limited
Color primaries : BT.709
Transfer characteristics : BT.709
Matrix coefficients : BT.709

Audio #1
ID : 2
Format : AC-3
Format/Info : Audio Coding 3
Commercial name : Dolby Digital
Codec ID : A_AC3
Duration : 1 h 4 min
Bit rate mode : Constant
Bit rate : 384 kb/s
Channel(s) : 6 channels
Channel positions : Front: L C R, Side: L R, LFE
Sampling rate : 48.0 kHz
Frame rate : 31.250 FPS (1536 SPF)
Bit depth : 16 bits
Compression mode : Lossy
Stream size : 176 MiB (5%)
Title : DniproFilm
Language : Ukrainian
Service kind : Complete Main
Default : Yes
Forced : No

Audio #2
ID : 3
Format : AC-3
Format/Info : Audio Coding 3
Codec ID : A_AC3
Duration : 1 h 3 min
Bit rate : 640 kb/s
Channel(s) : 6 channels
Sampling rate : 48.0 kHz
Frame rate : 31.250 FPS (1536 SPF)
Compression mode : Lossy
Stream size : 291 MiB (8%)
Language : English
Default : No
Forced : No
Скріншоти

Увага, присутня відео та аудіореклама.

Додано 7 серію (фінал сезону).


Джерело: DniproFilm



Авторський реліз (завантажувати можна без реєстрації)
 Трекер:    Зареєстрований   

Завантажити / скачати серіал українською



відео для новачків



 Зареєстрований:   2019-01-03 20:06
 Розмір:   24.21 GB 
 Оцінка серіалу:   9.5/10 (Голосів: 11)
   
vic7400 
Частий відвідувач


З нами з: 25.01.13
Востаннє: 18.08.19
Повідомлень: 33

2018-11-19 20:18  
прошу титри у студію,будьласка
DniproFilm 
VIP


З нами з: 10.10.18
Востаннє: 17.08.19
Повідомлень: 258

2019-01-03 20:08  
УВАГА! РЕЛІЗ ОНОВЛЕНО! (03.01.2019) Додано 7 серію (фінал сезону).

Ваш часовий пояс: GMT + 2 Години

Нова тема   Відповісти