Переступити межу / Walk The Line (2005) AVC Ukr/Eng | Sub Eng

Нові коментарі

Нова тема   Відповісти
Автор Повідомлення
staf777 
Відео Гуртом - підтримка та поширення
Відео Гуртом - підтримка та поширення


З нами з: 16.11.16
Востаннє: 05.07.20
Повідомлень: 3811

2018-11-18 17:42  
Переступити межу / Walk The Line (2005) AVC Ukr/Eng | Sub Eng

Переступити межу / Walk The Line (2005) AVC Ukr/Eng | Sub Eng


Жанр: біографія, драма, музика, романтика
Країна: США



Кінокомпанія: Fox 2000 Pictures
Режисер: Джеймс Менґолд (James Mangold)
Актори: Хоакін Фенікс (Joaquin Phoenix), Різ Візерспун (Reese Witherspoon), Джинніфер Ґудвін (Ginnifer Goodwin), Роберт Патрік (Robert Patrick) та інші.

Сюжет:
Якщо казати коротко, то цю кінострічку, створену 2005 року, присвячено історії життя легендарного співака у стилі кантрі Джонні Кеша та його другої дружини Джун Картер.


Тривалість: 02:15:52
Якість: AVC
Відео:
кодек:
розмір кадру: 1024x428
бітрейт: 2247 кб/с

Аудіо # 1:
мова: українська
переклад: двоголосий закадровий
кодек: 5.1
бітрейт: 384 кб/с

Аудіо # 2:
мова: англійська
переклад: оригінал
кодек: 5.1
бітрейт: 384 кб/с

Субтитри:
мова: англійська
тип: пререндерні
формат: *.pgs
Info
General
Unique ID : 36196709503700383286527071505820170967 (0x1B3B3B9066DAE1A3D9BEED965ABC3AD7)
Complete name : N:\ Walk The Line (2005) AVC [UA][ENG][Hurtom].
Format :
Format version : Version 4 / Version 2
File size : 2.89 GiB
Duration : 2 h 15 min
Overall bit rate : 3 040 kb/s
Movie name : Walk The Line (2005) AVC [UA][ENG][Hurtom]
Encoded date : UTC 2018-11-18 13:59:57
Writing application : v24.0.0 ('Beyond The Pale') 64-bit
Writing library : libebml v1.3.6 + v1.4.9
Cover : Yes
Attachments : cover.jpg

Video
ID : 1
Format : AVC
Format/Info : Advanced Video Codec
Format profile : [email protected]
Format settings : CABAC / 8 Ref Frames
Format settings, CABAC : Yes
Format settings, ReFrames : 8 frames
Codec ID : V_MPEG4/ISO/AVC
Duration : 2 h 15 min
Bit rate : 2 247 kb/s
Width : 1 024 pixels
Height : 428 pixels
Display aspect ratio : 2.40:1
Frame rate mode : Constant
Frame rate : 23.976 FPS
Color space : YUV
Chroma subsampling : 4:2:0
Bit depth : 8 bits
Scan type : Progressive
Bits/(Pixel*Frame) : 0.214
Stream size : 2.13 GiB (74%)
Writing library : core 122 r2184 5c85e0a
Encoding settings : cabac=1 / ref=8 / deblock=1:-2:-2 / analyse=0x3:0x133 / me=umh / subme=11 / psy=1 / psy_rd=1.00:0.00 / mixed_ref=1 / me_range=48 / chroma_me=1 / trellis=2 / 8x8dct=1 / cqm=0 / deadzone=21,11 / fast_pskip=0 / chroma_qp_offset=-2 / threads=6 / sliced_threads=0 / nr=0 / decimate=1 / interlaced=0 / bluray_compat=0 / constrained_intra=0 / bframes=8 / b_pyramid=2 / b_adapt=2 / b_bias=0 / direct=3 / weightb=1 / open_gop=0 / weightp=2 / keyint=250 / keyint_min=23 / scenecut=40 / intra_refresh=0 / rc=2pass / mbtree=0 / bitrate=2247 / ratetol=1.0 / qcomp=0.60 / qpmin=0 / qpmax=69 / qpstep=4 / cplxblur=20.0 / qblur=0.5 / ip_ratio=1.40 / pb_ratio=1.30 / aq=2:1.00
Language : English
Default : Yes
Forced : No

Audio #1
ID : 2
Format : AC-3
Format/Info : Audio Coding 3
Codec ID : A_AC3
Duration : 2 h 15 min
Bit rate mode : Constant
Bit rate : 384 kb/s
Channel(s) : 6 channels
Channel positions : Front: L C R, Side: L R, LFE
Sampling rate : 48.0 kHz
Frame rate : 31.250 FPS (1536 SPF)
Bit depth : 16 bits
Compression mode : Lossy
Stream size : 373 MiB (13%)
Title : [UA-DVO-1+1]
Language : Ukrainian
Service kind : Complete Main
Default : Yes
Forced : Yes

Audio #2
ID : 3
Format : AC-3
Format/Info : Audio Coding 3
Codec ID : A_AC3
Duration : 2 h 15 min
Bit rate mode : Constant
Bit rate : 384 kb/s
Channel(s) : 6 channels
Channel positions : Front: L C R, Side: L R, LFE
Sampling rate : 48.0 kHz
Frame rate : 31.250 FPS (1536 SPF)
Bit depth : 16 bits
Compression mode : Lossy
Stream size : 373 MiB (13%)
Language : English
Service kind : Complete Main
Default : No
Forced : No

Text
ID : 4
Format : PGS
Muxing mode : zlib
Codec ID : S_HDMV/PGS
Codec ID/Info : Picture based subtitle format used on BDs/HD-DVDs
Duration : 2 h 15 min
Bit rate : 63.1 kb/s
Count of elements : 4791
Stream size : 61.1 MiB (2%)
Language : English
Default : No
Forced : No

Menu
00:00:00.000 : :Chapter 01
00:02:28.940 : :Chapter 02
00:06:42.150 : :Chapter 03
00:10:26.208 : :Chapter 04
00:12:24.160 : :Chapter 05
00:15:55.955 : :Chapter 06
00:19:47.352 : :Chapter 07
00:23:47.425 : :Chapter 08
00:29:42.197 : :Chapter 09
00:33:18.036 : :Chapter 10
00:37:15.815 : :Chapter 11
00:41:36.494 : :Chapter 12
00:44:41.887 : :Chapter 13
00:47:09.493 : :Chapter 14
00:49:05.859 : :Chapter 15
00:54:11.706 : :Chapter 16
00:58:06.483 : :Chapter 17
01:02:45.052 : :Chapter 18
01:05:34.764 : :Chapter 19
01:08:31.982 : :Chapter 20
01:10:20.216 : :Chapter 21
01:15:41.328 : :Chapter 22
01:20:23.026 : :Chapter 23
01:26:48.077 : :Chapter 24
01:30:28.005 : :Chapter 25
01:33:26.767 : :Chapter 26
01:35:27.304 : :Chapter 27
01:37:44.859 : :Chapter 28
01:40:43.203 : :Chapter 29
01:45:52.262 : :Chapter 30
01:49:29.187 : :Chapter 31
01:52:16.104 : :Chapter 32
01:59:53.144 : :Chapter 33
02:03:17.306 : :Chapter 34
02:09:36.185 : :Chapter 35
02:10:38.831 : :Chapter 36
02:15:51.893 : :Chapter 37






За створення доріжки 5.1 подяка robotron005
За запис звуку з тб подяка ProgBassing
Джерело: &
Особиста оцінка: 8 - мені сподобалося
Переступити межу / Walk The Line (2005) AVC Ukr/Eng | Sub Eng Переступити межу / Walk The Line (2005) AVC Ukr/Eng | Sub Eng


 Трекер:    Зареєстрований   

Завантажити / скачати фільм українською



відео для новачків



 Зареєстрований:   2018-11-18 17:42
 Розмір:   2.89 GB 
 Оцінка фільму:   8/10 (Голосів: 13)
   
Форкуш 
VIP


З нами з: 03.02.10
Востаннє: 05.07.20
Повідомлень: 2788

2018-12-08 11:18  
Цікава доля в чувака... 8/10
tpolit 
VIP


З нами з: 10.01.15
Востаннє: 03.07.20
Повідомлень: 584

2019-04-05 22:48  
Ну що ж, починаємо переглядати фільми, в яких знімався актор Хоакін Фенікс. Як на мене, він чудово перевтілився в нового Джокера. Хіт Леджер би схвалив.

Ваш часовий пояс: GMT + 2 Години

Нова тема   Відповісти