Реальні Кабани (Дикі Вепри) / Wild Hogs (2007) AVC Ukr/Eng | Sub Eng

Нові коментарі

Нова тема   Відповісти
Автор Повідомлення
staf777 
Відео Гуртом - підтримка та поширення
Відео Гуртом - підтримка та поширення


З нами з: 16.11.16
Востаннє: 24.04.19
Повідомлень: 2284

2018-11-18 10:08  
Реальні Кабани (Дикі Вепри) / Wild Hogs (2007) AVC Ukr/Eng | Sub Eng

Реальні Кабани (Дикі Вепри) / Wild Hogs (2007) AVC Ukr/Eng | Sub Eng


Жанр: комедія, пригодницький
Країна: США



Кінокомпанія: Touchstone Pictures
Режисер: Волт Бекер
Актори: Тім Аллен, Джон Траволта, Мартін Лоуренс, Вільям Ейч Мейсі, Рей Ліотта, Маріса Томей, Марґарет Траволта, Пітер Фонда

Сюжет:
Четверо колишніх байкерів, досягши солідного віку та зрозумівши, що життя поступово, але невідступно втрачає смак, вирішують тряхнути стариною й вирушають на своїх запліснявілих байках у подорож Америкою, де на них чекає безліч різноманітних пригод, головним чином, непристойного характеру. Невибаглива комедія про кризу середнього віку миттєво очолила американський бокс-офіс і стала черговим доказом на користь того, що напередодні "оскарівської" лихоманки, коли масовому глядачеві доводиться обирати між "кіном з претензіями" та середньостатистичними стрічками, касовими рекордсменами стають саме останні.


Тривалість: 01:39:38
Якість: AVC
Відео:
кодек:
розмір кадру: 1024x426
бітрейт: 2700 кб/с

Аудіо # 1:
мова: українська
переклад: професійний дубльований
кодек: 5.1
бітрейт: 448 кб/с

Аудіо # 2:
мова: англійська
переклад: оригінал
кодек: 5.1
бітрейт: 448 кб/с

Джерело озвучення:


Субтитри:
мова: англійська
тип: програмні (м'які)
формат: *.srt



MI
General
Unique ID : 335830165856674890631918835302844768077 (0xFCA6898A36253751E4A4D0316AE29F4D)
Complete name : N:\Фільми AVC\Комедія\Wild Hogs (2007) [Ukr, Eng] AVC [Hurtom].
Format :
Format version : Version 4 / Version 2
File size : 2.50 GiB
Duration : 1 h 39 min
Overall bit rate : 3 598 kb/s
Movie name : Wild Hogs (2007) [Ukr, Eng] AVC [Hurtom]
Encoded date : UTC 2018-11-17 17:46:47
Writing application : v24.0.0 ('Beyond The Pale') 64-bit
Writing library : libebml v1.3.6 + v1.4.9
Cover : Yes
Attachments : cover.jpg

Video
ID : 1
Format : AVC
Format/Info : Advanced Video Codec
Format profile : [email protected]
Format settings : CABAC / 8 Ref Frames
Format settings, CABAC : Yes
Format settings, ReFrames : 8 frames
Codec ID : V_MPEG4/ISO/AVC
Duration : 1 h 39 min
Bit rate : 2 700 kb/s
Width : 1 024 pixels
Height : 432 pixels
Display aspect ratio : 2.40:1
Frame rate mode : Constant
Frame rate : 23.976 FPS
Color space : YUV
Chroma subsampling : 4:2:0
Bit depth : 8 bits
Scan type : Progressive
Bits/(Pixel*Frame) : 0.255
Stream size : 1.88 GiB (75%)
Writing library : core 125 r2200 999b753
Encoding settings : cabac=1 / ref=8 / deblock=1:-2:-2 / analyse=0x3:0x113 / me=umh / subme=9 / psy=1 / psy_rd=1.00:0.00 / mixed_ref=1 / me_range=32 / chroma_me=1 / trellis=2 / 8x8dct=1 / cqm=0 / deadzone=21,11 / fast_pskip=0 / chroma_qp_offset=-2 / threads=6 / lookahead_threads=1 / sliced_threads=0 / nr=0 / decimate=0 / interlaced=0 / bluray_compat=0 / constrained_intra=0 / bframes=8 / b_pyramid=2 / b_adapt=2 / b_bias=0 / direct=3 / weightb=1 / open_gop=0 / weightp=2 / keyint=240 / keyint_min=23 / scenecut=40 / intra_refresh=0 / rc=2pass / mbtree=0 / bitrate=2700 / ratetol=1.0 / qcomp=0.60 / qpmin=0 / qpmax=69 / qpstep=4 / cplxblur=20.0 / qblur=0.5 / ip_ratio=1.40 / pb_ratio=1.30 / aq=1:1.10
Language : English
Default : Yes
Forced : No

Audio #1
ID : 2
Format : AC-3
Format/Info : Audio Coding 3
Codec ID : A_AC3
Duration : 1 h 39 min
Bit rate mode : Constant
Bit rate : 448 kb/s
Channel(s) : 6 channels
Channel positions : Front: L C R, Side: L R, LFE
Sampling rate : 48.0 kHz
Frame rate : 31.250 FPS (1536 SPF)
Bit depth : 16 bits
Compression mode : Lossy
Stream size : 319 MiB (12%)
Title : [UA-MVO-DVD]
Language : Ukrainian
Service kind : Complete Main
Default : Yes
Forced : Yes

Audio #2
ID : 3
Format : AC-3
Format/Info : Audio Coding 3
Codec ID : A_AC3
Duration : 1 h 39 min
Bit rate mode : Constant
Bit rate : 448 kb/s
Channel(s) : 6 channels
Channel positions : Front: L C R, Side: L R, LFE
Sampling rate : 48.0 kHz
Frame rate : 31.250 FPS (1536 SPF)
Bit depth : 16 bits
Compression mode : Lossy
Stream size : 319 MiB (12%)
Language : English
Service kind : Complete Main
Default : No
Forced : No

Text
ID : 4
Format : UTF-8
Codec ID : S_TEXT/UTF8
Codec ID/Info : UTF-8 Plain Text
Duration : 1 h 36 min
Bit rate : 82 b/s
Count of elements : 1651
Stream size : 58.4 KiB (0%)
Language : English
Default : No
Forced : No

Джерело: &
Особиста оцінка: 8 - мені сподобалося
Реальні Кабани (Дикі Вепри) / Wild Hogs (2007) AVC Ukr/Eng | Sub Eng Реальні Кабани (Дикі Вепри) / Wild Hogs (2007) AVC Ukr/Eng | Sub Eng


 Трекер:    Зареєстрований   

Завантажити / скачати фільм українською



відео для новачків



 Зареєстрований:   2018-11-18 10:08
 Розмір:   2.5 GB 
 Оцінка фільму:   10/10 (Голосів: 8)
   
Ваш часовий пояс: GMT + 2 Години

Нова тема   Відповісти