Хронiки Спайдервiка / The Spiderwick Chronicles (2008) AVC Ukr/Eng | Sub Ukr/Eng

Нові коментарі

Нова тема   Відповісти
Автор Повідомлення
staf777 
Відео Гуртом - підтримка та поширення
Відео Гуртом - підтримка та поширення


З нами з: 16.11.16
Востаннє: 22.04.19
Повідомлень: 2281

2018-11-17 18:19  
Хронiки Спайдервiка / The Spiderwick Chronicles (2008) AVC Ukr/Eng | Sub Ukr/Eng
Хронiки Спайдервiка / The Spiderwick Chronicles (2008) AVC Ukr/Eng | Sub Ukr/Eng


Жанр: дитячий, пригодницький, фентезі
Країна: США



Кінокомпанія: Spiderwick Productions
Режисер: Марк Вотерс
Актори: Фредді Хаймор, Сара Болджер, Майк Еппс, Мері-Луїз Паркер, Дейвід Стретейрн, Ендрю Маккарті, Ізабелла Міко, Джоан Плоурайт, Нік Нолт

Сюжет:
Сім’я Грейс переїздить у старий будинок, який колись був власністю їх прапрадядька, Артура Спайдервіка. Юний Джерад знаходить дивну й небезпечну книжку, написану дядьком Артуром. Як тільки хлопчик відкриває її, навколишній світ помістя Спайдервік, населений незвичними, чарівними і небезпечними створіннями, немовби прокидається після довгої сплячки...


Тривалість: 01:35:46
Якість: AVC
Відео:
кодек:
розмір кадру: 1024х432
бітрейт: 2750 Кбіт/сек

Аудіо # 1:
мова: українська
переклад: професійний дубльований
кодек: 5.1
бітрейт: 448 Кбіт/сек

Аудіо # 2:
мова: англійська
переклад: оригінал
кодек: 5.1
бітрейт: 448 Кбіт/сек

Субтитри # 1:
мова: українська
тип: програмні (м'які)
формат: *.srt

Субтитри # 2:
мова: англійська
тип: програмні (м'які)
формат: *.srt
Info

General
Unique ID : 156154996540490518718212864633234717117 (0x757A5BBECFBADD5DA0405DF60D6AF9BD)
Complete name : N:\Фільми AVC\Фентезі\The Spiderwick Chronicles (2008) AVC [UA][ENG][Hurtom].
Format :
Format version : Version 4 / Version 2
File size : 2.44 GiB
Duration : 1 h 35 min
Overall bit rate : 3 648 kb/s
Movie name : The Spiderwick Chronicles (2008) AVC [UA][ENG][Hurtom]
Encoded date : UTC 2018-11-17 14:52:40
Writing application : v24.0.0 ('Beyond The Pale') 64-bit
Writing library : libebml v1.3.6 + v1.4.9
Cover : Yes
Attachments : cover.jpg

Video
ID : 1
Format : AVC
Format/Info : Advanced Video Codec
Format profile : [email protected]
Format settings : CABAC / 6 Ref Frames
Format settings, CABAC : Yes
Format settings, ReFrames : 6 frames
Codec ID : V_MPEG4/ISO/AVC
Duration : 1 h 35 min
Bit rate : 2 750 kb/s
Width : 1 024 pixels
Height : 432 pixels
Display aspect ratio : 2.40:1
Frame rate mode : Constant
Frame rate : 23.976 (24000/1001) FPS
Color space : YUV
Chroma subsampling : 4:2:0
Bit depth : 8 bits
Scan type : Progressive
Bits/(Pixel*Frame) : 0.259
Stream size : 1.84 GiB (75%)
Default : Yes
Forced : No

Audio #1
ID : 2
Format : AC-3
Format/Info : Audio Coding 3
Codec ID : A_AC3
Duration : 1 h 35 min
Bit rate mode : Constant
Bit rate : 448 kb/s
Channel(s) : 6 channels
Channel positions : Front: L C R, Side: L R, LFE
Sampling rate : 48.0 kHz
Frame rate : 31.250 FPS (1536 SPF)
Bit depth : 16 bits
Compression mode : Lossy
Stream size : 307 MiB (12%)
Language : Ukrainian
Service kind : Complete Main
Default : Yes
Forced : Yes

Audio #2
ID : 3
Format : AC-3
Format/Info : Audio Coding 3
Codec ID : A_AC3
Duration : 1 h 35 min
Bit rate mode : Constant
Bit rate : 448 kb/s
Channel(s) : 6 channels
Channel positions : Front: L C R, Side: L R, LFE
Sampling rate : 48.0 kHz
Frame rate : 31.250 FPS (1536 SPF)
Bit depth : 16 bits
Compression mode : Lossy
Stream size : 307 MiB (12%)
Language : English
Service kind : Complete Main
Default : No
Forced : No

Text #1
ID : 4
Format : UTF-8
Codec ID : S_TEXT/UTF8
Codec ID/Info : UTF-8 Plain Text
Duration : 1 h 33 min
Bit rate : 88 b/s
Count of elements : 1092
Stream size : 61.2 KiB (0%)
Language : Ukrainian
Default : No
Forced : No

Text #2
ID : 5
Format : UTF-8
Codec ID : S_TEXT/UTF8
Codec ID/Info : UTF-8 Plain Text
Duration : 1 h 23 min
Bit rate : 56 b/s
Count of elements : 1060
Stream size : 34.5 KiB (0%)
Language : English
Default : No
Forced : No
Скріншоти






Цікаво
Фільм знятий за мотивами серії романів Тоні ДиТерлицци і Холлі Блек «Спайдервік. Хроніки» (The, Chronicles, 2003-2004).
У загальній складності у фільмі «Спайдервік. Хроніки» приблизно 500 планів зі спецефектами.
Роботу над ними розділили дві каліфорнійські студії Industrial Light & Magic (ILM) і Tippett Studio.

Джерело: &
Особиста оцінка: 8 - мені сподобалося
Хронiки Спайдервiка / The Spiderwick Chronicles (2008) AVC Ukr/Eng | Sub Ukr/Eng Хронiки Спайдервiка / The Spiderwick Chronicles (2008) AVC Ukr/Eng | Sub Ukr/Eng


 Трекер:    Зареєстрований   

Завантажити / скачати фільм українською



відео для новачків



 Зареєстрований:   2018-11-17 18:21
 Розмір:   2.44 GB 
 Оцінка фільму:   8.9/10 (Голосів: 8)
   
bot 
робот


З нами з: 30.09.07
Востаннє: 26.05.05
Повідомлень: 21230

2018-11-17 18:21  
Тему перенесено з Анонси релізів до форуму Фільми


staf777

Віктор Багряний 
VIP


З нами з: 20.08.12
Востаннє: 15.04.19
Повідомлень: 387

2018-11-17 18:47  
У загальній складності - тупий гугл-переклад з єзига "в общей сложности"
Українською буде Загалом беручи; у цілому
УКРАЇНСЬКА МОВА - НЕ ГУГЛ-ПЕРЕКЛАД ЄЗІГА.

Ваш часовий пояс: GMT + 2 Години

Нова тема   Відповісти