Місія нездійсненна. Колекція / Mission: Impossible. Collection (1996, 2000, 2006, 2011, 2015, 2018) 1080p H.265 Ukr/Eng | Sub Ukr/Eng

Нові коментарі

Нова тема   Відповісти
Автор Повідомлення
-Star-Lord- 
VIP


З нами з: 09.08.18
Востаннє: 14.12.18
Повідомлень: 342

2018-11-17 17:09  
Місія нездійсненна. Колекція / Mission: Impossible. Collection (1996, 2000, 2006, 2011, 2015, 2018) 1080p H.265 Ukr/Eng | Sub Ukr/Eng

Місія нездійсненна. Колекція / Mission: Impossible. Collection (1996, 2000, 2006, 2011, 2015, 2018) 1080p H.265 Ukr/Eng | Sub Ukr/Eng

1. 2. 3. 4. 5. 6.

1. Місія нездійсненна / Mission: Impossible (1996) 1080p H.265 Ukr/Eng | Sub Eng
Місія нездійсненна / Mission: Impossible (1996) 1080p H.265 Ukr/Eng | Sub Eng

Місія нездійсненна. Колекція / Mission: Impossible. Collection (1996, 2000, 2006, 2011, 2015, 2018) 1080p H.265 Ukr/Eng | Sub Ukr/Eng

Жанр: детектив, бойовик

Країна: США

Кінокомпанія: Paramount Pictures, Cruise/Wagner Productions

Режисер: Браян Де Пальма / Brian De Palma

Актори: Том Круз / Tom Cruise, Джон Войт / Jon Voight, Емануель Бер / Emmanuelle Béart, Генрі Черні / Henry Czerny, Жан Рено / Jean Reno, Вінґ Реймс / Ving Rhames, Крістін Скотт-Томас / Kristin Scott Thomas, Ванесса Редґрейв / Vanessa Redgrave, Дейл Дай / Dale Dye, Марчел Юреш / Marcel Iures, Інгеборга Дапкунайте / Ingeborga Dapkunaite та інші

Сюжет:
Групу таємних агентів ЦРУ посилають на завдання: схопити зрадника, який повинен викрасти з комп'ютера список таємних агентів і продати його терористам. Агенти прибувають на завдання, але невідомим чином усі гинуть один за одним. Уцілів лише агент Ітан Хант. Виявляється, дана операція була лише приманкою, щоб виявити крота у ЦРУ. Той, хто вижив, - головний підозрюваний. Ітан Хант залишається сам на сам проти ЦРУ та бандитів, які його підставили. Його місія - знайти справжнього зрадника, навіть якщо для цього доведеться виконати нездійсненне завдання...

Шпигунський супербойовик талановитого послідовника хічхоківських традицій у кінематографі, майстра трилерів та фільмів жахів - режисера Брайяна Де Пальми. Незмінні атрибути жанру - запаморочливі трюки, використання надсучасних технологій, перегони на швидкісних потягах, перестрілки та бійки, красиві жінки. А на десерт зірковий склад акторів.

Тривалість: 01:50:12
Якість:

Відео: H.265 (HEVC)
Розмір кадру: 1920 x 796
Бітрейт: 7 326 кб/с
Частота кадрів: 23.976 fps
Глибина кольору: 0.200 BPP (Bits per Pixel), 10 біт

Увага! Перед завантаженням переконайтесь, що ваш пристрій відтворення (та/або ПЗ) підтримує H.265 (HEVC)
Аудіо # 1: українська , багатоголосий закадровий, AC-3 2.0, 192 кб/с, , ,
Аудіо # 2: англійська , оригінал, AC-3 5.1, 448 кб/с

Субтитри # 1: англійська , Full, програмні (м'які), *.srt

Info
Код:
General
Unique ID                                : 73080142999776091115959861645421677960 (0x36FAB93C2AF1A4FC4B4F59BBEDAD8D88)
Complete name                            : G:\Video\Films\Collection\Mission - Impossible. Collection (1996-2018) 1080p H.265\1. Mission Impossible (1996) 1080p H.265 [UKR_ENG].
Format                                   :
Format version                           : Version 4 / Version 2
File size                                : 6.13 GiB
Duration                                 : 1 h 50 min
Overall bit rate                         : 7 968 kb/s
Movie name                               : Mission Impossible (1996)
Encoded date                             : UTC 2018-11-17 13:35:14
Writing application                      : v20.0.0 ('I Am The Sun') 32-bit
Writing library                          : libebml v1.3.5 + v1.4.8
Cover                                    : Yes
Attachments                              : Cover.jpg

Video
ID                                       : 1
Format                                   : HEVC
Format/Info                              : High Efficiency Video Coding
Format profile                           : Main [email protected]@High
Codec ID                                 : V_MPEGH/ISO/HEVC
Duration                                 : 1 h 50 min
Bit rate                                 : 7 326 kb/s
Width                                    : 1 920 pixels
Height                                   : 796 pixels
Display aspect ratio                     : 2.40:1
Frame rate mode                          : Constant
Frame rate                               : 23.976 (24000/1001) FPS
Color space                              : YUV
Chroma subsampling                       : 4:2:0
Bit depth                                : 10 bits
Bits/(Pixel*Frame)                       : 0.200
Stream size                              : 5.64 GiB (92%)
Writing library                          : x265 2.7+17-2e370d98c806:[Windows][GCC 8.0.1][64 bit] 10bit
Encoding settings                        : cpuid=1173503 / frame-threads=4 / numa-pools=16 / wpp / no-pmode / no-pme / no-psnr / no-ssim / log-level=2 / input-csp=1 / input-res=1920x796 / interlace=0 / total-frames=158544 / level-idc=41 / high-tier=1 / uhd-bd=0 / ref=5 / no-allow-non-conformance / no-repeat-headers / annexb / no-aud / no-hrd / info / hash=0 / no-temporal-layers / open-gop / min-keyint=23 / keyint=240 / gop-lookahead=0 / bframes=8 / b-adapt=2 / no-b-pyramid / bframe-bias=0 / rc-lookahead=60 / lookahead-slices=4 / scenecut=40 / radl=0 / no-intra-refresh / ctu=64 / min-cu-size=8 / rect / amp / max-tu-size=32 / tu-inter-depth=4 / tu-intra-depth=4 / limit-tu=1 / rdoq-level=1 / dynamic-rd=0.00 / no-ssim-rd / signhide / no-tskip / nr-intra=0 / nr-inter=0 / no-constrained-intra / no-strong-intra-smoothing / max-merge=3 / limit-refs=2 / limit-modes / me=3 / subme=7 / merange=57 / temporal-mvp / weightp / weightb / no-analyze-src-pics / deblock=-3:-3 / no-sao / no-sao-non-deblock / rd=6 / no-early-skip / rskip / no-fast-intra / no-tskip-fast / no-cu-lossless / b-intra / no-splitrd-skip / rdpenalty=0 / psy-rd=2.00 / psy-rdoq=1.00 / no-rd-refine / no-lossless / cbqpoffs=-2 / crqpoffs=-2 / rc=crf / crf=18.0 / qcomp=0.65 / qpstep=4 / stats-write=0 / stats-read=0 / vbv-maxrate=50000 / vbv-bufsize=50000 / vbv-init=0.9 / crf-max=0.0 / crf-min=0.0 / ipratio=1.40 / pbratio=1.30 / aq-mode=1 / aq-strength=1.00 / cutree / zone-count=1 / zones: / start-frame=152449 / end-frame=158544 / qp=35 / no-strict-cbr / qg-size=32 / no-rc-grain / qpmax=69 / qpmin=0 / no-const-vbv / sar=1 / overscan=0 / videoformat=5 / range=0 / colorprim=1 / transfer=1 / colormatrix=1 / chromaloc=0 / display-window=0 / max-cll=0,0 / min-luma=0 / max-luma=1023 / log2-max-poc-lsb=8 / vui-timing-info / vui-hrd-info / slices=1 / no-opt-qp-pps / no-opt-ref-list-length-pps / no-multi-pass-opt-rps / scenecut-bias=0.05 / no-opt-cu-delta-qp / no-aq-motion / no-hdr / no-hdr-opt / no-dhdr10-opt / no-idr-recovery-sei / analysis-reuse-level=5 / scale-factor=0 / refine-intra=0 / refine-inter=0 / refine-mv=0 / no-limit-sao / ctu-info=0 / no-lowpass-dct / refine-mv-type=0 / copy-pic=1 / max-ausize-factor=1.0 / no-dynamic-refine
Default                                  : Yes
Forced                                   : No
Color range                              : Limited
Color primaries                          : BT.709
Transfer characteristics                 : BT.709
Matrix coefficients                      : BT.709

Audio #1
ID                                       : 2
Format                                   : AC-3
Format/Info                              : Audio Coding 3
Codec ID                                 : A_AC3
Duration                                 : 1 h 50 min
Bit rate mode                            : Constant
Bit rate                                 : 192 kb/s
Channel(s)                               : 2 channels
Channel positions                        : Front: L R
Sampling rate                            : 48.0 kHz
Frame rate                               : 31.250 FPS (1536 SPF)
Bit depth                                : 16 bits
Compression mode                         : Lossy
Stream size                              : 151 MiB (2%)
Title                                    : БЗ - Inter, ICTV, NTN
Language                                 : Ukrainian
Service kind                             : Complete Main
Default                                  : Yes
Forced                                   : No

Audio #2
ID                                       : 3
Format                                   : AC-3
Format/Info                              : Audio Coding 3
Codec ID                                 : A_AC3
Duration                                 : 1 h 50 min
Bit rate mode                            : Constant
Bit rate                                 : 448 kb/s
Channel(s)                               : 6 channels
Channel positions                        : Front: L C R, Side: L R, LFE
Sampling rate                            : 48.0 kHz
Frame rate                               : 31.250 FPS (1536 SPF)
Bit depth                                : 16 bits
Compression mode                         : Lossy
Stream size                              : 353 MiB (6%)
Title                                    : Original
Language                                 : English
Service kind                             : Complete Main
Default                                  : No
Forced                                   : No

Text
ID                                       : 4
Format                                   : UTF-8
Codec ID                                 : S_TEXT/UTF8
Codec ID/Info                            : UTF-8 Plain Text
Duration                                 : 1 h 45 min
Bit rate                                 : 32 b/s
Count of elements                        : 587
Stream size                              : 24.9 KiB (0%)
Title                                    : Full
Language                                 : English
Default                                  : No
Forced                                   : No

Menu
00:00:00.000                             : en:Kiev
00:03:00.972                             : en:Good Morning, Mr. Phelps
00:10:44.727                             : en:Golitsyn
00:26:43.810                             : en:Mole Hunt
00:32:21.481                             : en:Job 3:14
00:39:50.388                             : en:Max
00:49:39.142                             : en:Disavowed
00:55:45.633                             : en:The Black Vault
01:12:25.716                             : en:Noc List
01:18:34.459                             : en:No More Secrets
01:28:14.539                             : en:Masquerade
01:38:06.714                             : en:Red Light Green Light
01:44:02.778                             : en:"Aruba, Perhaps?"

Світлини



2. Місія нездійсненна 2 / Mission: Impossible II (2000) 1080p H.265 2xUkr/Eng | Sub Eng
Місія нездійсненна 2 / Mission: Impossible II (2000) 1080p H.265 2xUkr/Eng | Sub Eng

Місія нездійсненна. Колекція / Mission: Impossible. Collection (1996, 2000, 2006, 2011, 2015, 2018) 1080p H.265 Ukr/Eng | Sub Ukr/Eng

Жанр: бойовик, трилер, детектив

Країна: США, Німеччина

Кінокомпанія: Paramount Pictures, Cruise/Wagner Productions, Munich Film Partners & Company (MFP) MI2 Productions

Режисер: Джон Ву / John Woo

Актори: Том Круз / Tom Cruise, Ентоні Гопкінс / Anthony Hopkins, Даґрей Скот / Dougray Scott, Тенді Ньютон / Thandie Newton, Вінґ Реймс / Ving Rhames, Річард Роксбурґ / Richard Roxburgh, Джон Полсон / John Polson, Брендан Ґлісон / Brendan Gleeson, Раді Шербеджія / Rade Serbedzija, Вільям Мапотер / William Mapother, Домінік Пурселл / Dominic Purcell та інші

Сюжет:
Том Круз знову постає перед нами у ролі незрівнянного шпигуна Ітана Ханта. Найвідоміший режисер бойовиків Джон Ву запрошує нас стати свідками нових неймовірних пригод відважного суперагента. Якщо світ раптом опиняється перед обличчям жахливої катастрофи, є лише одна людина, здатна виправити становище. Її ім'я - Ітан Хант, природжений спеціаліст з вирішення нездійсненних завдань. Тепер у Ітана новий суворий начальник (Ентоні Хопкінс), нова чарівна дівчина (Тенді Ньютон), новий злісний противник (Даґрей Скот) і нове завдання, яке не під силу звичайному смертному.
Цього разу таємного агента посилають до Сіднею, щоб знайти генетично модифікований вірус під назвою "Химера".

Тривалість: 02:03:35
Якість:

Відео: H.265 (HEVC)
Розмір кадру: 1912 x 794
Бітрейт: 8 212 кб/с
Частота кадрів: 23.976 fps
Глибина кольору: 0.226 BPP (Bits per Pixel), 10 біт

Увага! Перед завантаженням переконайтесь, що ваш пристрій відтворення (та/або ПЗ) підтримує H.265 (HEVC)
Аудіо # 1: українська , багатоголосий закадровий, AC-3 2.0, 192 кб/с,
Аудіо # 2: українська , двоголосий закадровий, AC-3 2.0, 192 кб/с,
Аудіо # 3: англійська , оригінал, AC-3 5.1, 384 кб/с

Субтитри # 1: англійська , Full, програмні (м'які), *.srt

Info
Код:
General
Unique ID                                : 103127123509936218363544431520632796852 (0x4D958FC01404C8531622F7B3FEE3F6B4)
Complete name                            : G:\Video\Films\Collection\Mission - Impossible. Collection (1996-2018) 1080p H.265\2. Mission Impossible II (2000) 1080p H.265 [UKR_ENG].
Format                                   :
Format version                           : Version 4 / Version 2
File size                                : 7.75 GiB
Duration                                 : 2 h 3 min
Overall bit rate                         : 8 982 kb/s
Movie name                               : Mission Impossible II (2000)
Encoded date                             : UTC 2018-11-17 13:30:22
Writing application                      : v20.0.0 ('I Am The Sun') 32-bit
Writing library                          : libebml v1.3.5 + v1.4.8
Cover                                    : Yes
Attachments                              : Cover.jpg

Video
ID                                       : 1
Format                                   : HEVC
Format/Info                              : High Efficiency Video Coding
Format profile                           : Main [email protected]@High
Codec ID                                 : V_MPEGH/ISO/HEVC
Duration                                 : 2 h 3 min
Bit rate                                 : 8 212 kb/s
Width                                    : 1 912 pixels
Height                                   : 794 pixels
Display aspect ratio                     : 2.40:1
Frame rate mode                          : Constant
Frame rate                               : 23.976 (24000/1001) FPS
Color space                              : YUV
Chroma subsampling                       : 4:2:0
Bit depth                                : 10 bits
Bits/(Pixel*Frame)                       : 0.226
Stream size                              : 7.09 GiB (91%)
Writing library                          : x265 2.7+17-2e370d98c806:[Windows][GCC 8.0.1][64 bit] 10bit
Encoding settings                        : cpuid=1173503 / frame-threads=4 / numa-pools=16 / wpp / no-pmode / no-pme / no-psnr / no-ssim / log-level=2 / input-csp=1 / input-res=1912x794 / interlace=0 / total-frames=177792 / level-idc=41 / high-tier=1 / uhd-bd=0 / ref=5 / no-allow-non-conformance / no-repeat-headers / annexb / no-aud / no-hrd / info / hash=0 / no-temporal-layers / open-gop / min-keyint=23 / keyint=240 / gop-lookahead=0 / bframes=5 / b-adapt=2 / no-b-pyramid / bframe-bias=0 / rc-lookahead=60 / lookahead-slices=4 / scenecut=40 / radl=0 / no-intra-refresh / ctu=64 / min-cu-size=8 / rect / amp / max-tu-size=32 / tu-inter-depth=4 / tu-intra-depth=4 / limit-tu=1 / rdoq-level=1 / dynamic-rd=0.00 / no-ssim-rd / signhide / no-tskip / nr-intra=0 / nr-inter=0 / no-constrained-intra / no-strong-intra-smoothing / max-merge=3 / limit-refs=2 / limit-modes / me=3 / subme=7 / merange=57 / temporal-mvp / weightp / weightb / no-analyze-src-pics / deblock=-3:-3 / no-sao / no-sao-non-deblock / rd=6 / no-early-skip / rskip / no-fast-intra / no-tskip-fast / no-cu-lossless / b-intra / no-splitrd-skip / rdpenalty=0 / psy-rd=2.00 / psy-rdoq=1.00 / no-rd-refine / no-lossless / cbqpoffs=-2 / crqpoffs=-2 / rc=crf / crf=18.0 / qcomp=0.65 / qpstep=4 / stats-write=0 / stats-read=0 / vbv-maxrate=50000 / vbv-bufsize=50000 / vbv-init=0.9 / crf-max=0.0 / crf-min=0.0 / ipratio=1.40 / pbratio=1.30 / aq-mode=1 / aq-strength=1.00 / cutree / zone-count=1 / zones: / start-frame=171155 / end-frame=177792 / qp=35 / no-strict-cbr / qg-size=32 / no-rc-grain / qpmax=69 / qpmin=0 / no-const-vbv / sar=1 / overscan=0 / videoformat=5 / range=0 / colorprim=1 / transfer=1 / colormatrix=1 / chromaloc=0 / display-window=0 / max-cll=0,0 / min-luma=0 / max-luma=1023 / log2-max-poc-lsb=8 / vui-timing-info / vui-hrd-info / slices=1 / no-opt-qp-pps / no-opt-ref-list-length-pps / no-multi-pass-opt-rps / scenecut-bias=0.05 / no-opt-cu-delta-qp / no-aq-motion / no-hdr / no-hdr-opt / no-dhdr10-opt / no-idr-recovery-sei / analysis-reuse-level=5 / scale-factor=0 / refine-intra=0 / refine-inter=0 / refine-mv=0 / no-limit-sao / ctu-info=0 / no-lowpass-dct / refine-mv-type=0 / copy-pic=1 / max-ausize-factor=1.0 / no-dynamic-refine
Default                                  : Yes
Forced                                   : No
Color range                              : Limited
Color primaries                          : BT.709
Transfer characteristics                 : BT.709
Matrix coefficients                      : BT.709

Audio #1
ID                                       : 2
Format                                   : AC-3
Format/Info                              : Audio Coding 3
Codec ID                                 : A_AC3
Duration                                 : 2 h 3 min
Bit rate mode                            : Constant
Bit rate                                 : 192 kb/s
Channel(s)                               : 2 channels
Channel positions                        : Front: L R
Sampling rate                            : 48.0 kHz
Frame rate                               : 31.250 FPS (1536 SPF)
Bit depth                                : 16 bits
Compression mode                         : Lossy
Stream size                              : 170 MiB (2%)
Title                                    : БЗ - Inter
Language                                 : Ukrainian
Service kind                             : Complete Main
Default                                  : Yes
Forced                                   : No

Audio #2
ID                                       : 3
Format                                   : AC-3
Format/Info                              : Audio Coding 3
Codec ID                                 : A_AC3
Duration                                 : 2 h 3 min
Bit rate mode                            : Constant
Bit rate                                 : 192 kb/s
Channel(s)                               : 2 channels
Channel positions                        : Front: L R
Sampling rate                            : 48.0 kHz
Frame rate                               : 31.250 FPS (1536 SPF)
Bit depth                                : 16 bits
Compression mode                         : Lossy
Stream size                              : 170 MiB (2%)
Title                                    : ДЗ - ICTV
Language                                 : Ukrainian
Service kind                             : Complete Main
Default                                  : No
Forced                                   : No

Audio #3
ID                                       : 4
Format                                   : AC-3
Format/Info                              : Audio Coding 3
Codec ID                                 : A_AC3
Duration                                 : 2 h 3 min
Bit rate mode                            : Constant
Bit rate                                 : 384 kb/s
Channel(s)                               : 6 channels
Channel positions                        : Front: L C R, Side: L R, LFE
Sampling rate                            : 48.0 kHz
Frame rate                               : 31.250 FPS (1536 SPF)
Bit depth                                : 16 bits
Compression mode                         : Lossy
Stream size                              : 339 MiB (4%)
Title                                    : Original
Language                                 : English
Service kind                             : Complete Main
Default                                  : No
Forced                                   : No

Text
ID                                       : 5
Format                                   : UTF-8
Codec ID                                 : S_TEXT/UTF8
Codec ID/Info                            : UTF-8 Plain Text
Duration                                 : 1 h 57 min
Bit rate                                 : 36 b/s
Count of elements                        : 887
Stream size                              : 31.7 KiB (0%)
Title                                    : Full
Language                                 : English
Default                                  : No
Forced                                   : No

Menu
00:00:00.000                             : en:Old Friend
00:05:57.023                             : en:Holiday
00:10:39.347                             : en:I See You Found It
00:18:03.415                             : en:Catch Me
00:23:47.342                             : en:Sean Ambrose
00:34:47.877                             : en:A Welcome
00:45:40.070                             : en:Don't Turn Around
00:56:08.406                             : en:A Touch of the Flu
01:05:07.695                             : en:Biocyte
01:11:38.961                             : en:The Last Strain
01:18:24.741                             : en:I Guess I Lied
01:25:59.904                             : en:Supply and Demand
01:35:40.109                             : en:Smile
01:40:16.802                             : en:Race Against Time
01:49:33.692                             : en:Mano a Mano
01:53:59.165                             : en:Destroyed By Fire
01:58:58.589                             : en:End Credits

Світлини



3. Місія нездійсненна 3 / Mission: Impossible III (2006) 1080p H.265 2xUkr/Eng | Sub Ukr/Eng
Місія нездійсненна 3 / Mission: Impossible III (2006) 1080p H.265 2xUkr/Eng | Sub Ukr/Eng

Місія нездійсненна. Колекція / Mission: Impossible. Collection (1996, 2000, 2006, 2011, 2015, 2018) 1080p H.265 Ukr/Eng | Sub Ukr/Eng

Жанр: бойовик, трилер, пригоди

Країна: США, Німеччина, Китай

Кінокомпанія: Paramount Pictures, Cruise/Wagner Productions, MI 3 Film

Режисер: Джей Джей Абрамс / J.J. Abrams

Актори: Том Круз / Tom Cruise, Філіп Сеймур Гофмен / Philip Seymour Hoffman, Вінґ Реймс / Ving Rhames, Біллі Крудап / Billy Crudup, Мішель Монаґан / Michelle Monaghan, Джонатан Різ Меєрс / Jonathan Rhys Meyers, Кері Рассел / Keri Russell, Меґґі К'ю / Maggie Q, Саймон Пеґ / Simon Pegg, Едді Марсан / Eddie Marsan, Лоуренс Фішберн / Laurence Fishburne та інші

Сюжет:
Таємний агент Ітан Хант повертається з новим спецзавданням. У його руках не тільки доля світу, а й життя коханої жінки. Вороги Ітана викрали його наречену, і тепер він повинен викрасти об'єкт під кодовою назвою "Кроляча лапка", щоб взамін отримати свою наречену. Але, як виявилось, "Кроляча лапка" була підробкою...

Тривалість: 02:05:24
Якість:

Відео: H.265 (HEVC)
Розмір кадру: 1920 x 818
Бітрейт: 7 854 кб/с
Частота кадрів: 23.976 fps
Глибина кольору: 0.209 BPP (Bits per Pixel), 10 біт

Увага! Перед завантаженням переконайтесь, що ваш пристрій відтворення (та/або ПЗ) підтримує H.265 (HEVC)
Аудіо # 1: українська , багатоголосий закадровий, AC-3 2.0, 192 кб/с,
Аудіо # 2: українська , багатоголосий закадровий, AC-3 2.0, 192 кб/с,
Аудіо # 3: англійська , оригінал, AC-3 5.1, 384 кб/с

Субтитри # 1: українська , Full (by antikillW), програмні (м'які), *.srt
Субтитри # 2: англійська , Full, програмні (м'які), *.srt

Info
Код:
General
Unique ID                                : 13410903125092527410460429230916307011 (0xA16D892DD8F5996888B764076810843)
Complete name                            : G:\Video\Films\Collection\Mission - Impossible. Collection (1996-2018) 1080p H.265\3. Mission Impossible III (2006) 1080p H.265 [2xUKR_ENG].
Format                                   :
Format version                           : Version 4 / Version 2
File size                                : 7.55 GiB
Duration                                 : 2 h 6 min
Overall bit rate                         : 8 537 kb/s
Movie name                               : Mission Impossible III (2006)
Encoded date                             : UTC 2018-11-17 13:26:05
Writing application                      : v20.0.0 ('I Am The Sun') 32-bit
Writing library                          : libebml v1.3.5 + v1.4.8
Cover                                    : Yes
Attachments                              : Cover.jpg

Video
ID                                       : 1
Format                                   : HEVC
Format/Info                              : High Efficiency Video Coding
Format profile                           : Main [email protected]@High
Codec ID                                 : V_MPEGH/ISO/HEVC
Duration                                 : 2 h 5 min
Bit rate                                 : 7 853 kb/s
Width                                    : 1 920 pixels
Height                                   : 818 pixels
Display aspect ratio                     : 2.35:1
Frame rate mode                          : Constant
Frame rate                               : 23.976 (24000/1001) FPS
Color space                              : YUV
Chroma subsampling                       : 4:2:0
Bit depth                                : 10 bits
Bits/(Pixel*Frame)                       : 0.209
Stream size                              : 6.88 GiB (91%)
Writing library                          : x265 2.7+1-2aa737a99f51:[Windows][GCC 8.0.1][64 bit] 10bit
Encoding settings                        : cpuid=1173503 / frame-threads=4 / numa-pools=16 / wpp / no-pmode / no-pme / no-psnr / no-ssim / log-level=2 / input-csp=1 / input-res=1920x818 / interlace=0 / total-frames=0 / level-idc=41 / high-tier=1 / uhd-bd=0 / ref=5 / no-allow-non-conformance / no-repeat-headers / annexb / no-aud / no-hrd / info / hash=0 / no-temporal-layers / open-gop / min-keyint=23 / keyint=240 / gop-lookahead=0 / bframes=8 / b-adapt=2 / b-pyramid / bframe-bias=0 / rc-lookahead=60 / lookahead-slices=4 / scenecut=40 / radl=0 / no-intra-refresh / ctu=64 / min-cu-size=8 / rect / amp / max-tu-size=32 / tu-inter-depth=4 / tu-intra-depth=4 / limit-tu=1 / rdoq-level=2 / dynamic-rd=0.00 / no-ssim-rd / signhide / no-tskip / nr-intra=0 / nr-inter=0 / no-constrained-intra / no-strong-intra-smoothing / max-merge=3 / limit-refs=3 / limit-modes / me=3 / subme=7 / merange=57 / temporal-mvp / weightp / weightb / no-analyze-src-pics / deblock=-3:-3 / no-sao / no-sao-non-deblock / rd=6 / no-early-skip / rskip / no-fast-intra / no-tskip-fast / no-cu-lossless / b-intra / splitrd-skip / rdpenalty=0 / psy-rd=2.00 / psy-rdoq=0.00 / no-rd-refine / no-lossless / cbqpoffs=-2 / crqpoffs=-2 / rc=crf / crf=19.0 / qcomp=0.70 / qpstep=4 / stats-write=0 / stats-read=0 / vbv-maxrate=50000 / vbv-bufsize=50000 / vbv-init=0.9 / crf-max=0.0 / crf-min=0.0 / ipratio=1.40 / pbratio=1.30 / aq-mode=2 / aq-strength=1.00 / cutree / zone-count=1 / zones: / start-frame=171283 / end-frame=180408 / qp=35 / no-strict-cbr / qg-size=32 / no-rc-grain / qpmax=69 / qpmin=0 / no-const-vbv / sar=0 / overscan=0 / videoformat=5 / range=0 / colorprim=2 / transfer=2 / colormatrix=1 / chromaloc=0 / display-window=0 / max-cll=0,0 / min-luma=0 / max-luma=1023 / log2-max-poc-lsb=8 / vui-timing-info / vui-hrd-info / slices=1 / no-opt-qp-pps / no-opt-ref-list-length-pps / no-multi-pass-opt-rps / scenecut-bias=0.05 / opt-cu-delta-qp / no-aq-motion / no-hdr / no-hdr-opt / no-dhdr10-opt / analysis-reuse-level=5 / scale-factor=0 / refine-intra=0 / refine-inter=0 / refine-mv=0 / no-limit-sao / ctu-info=0 / no-lowpass-dct / refine-mv-type=0 / copy-pic=1
Default                                  : Yes
Forced                                   : Yes
Color range                              : Limited
Matrix coefficients                      : BT.709

Audio #1
ID                                       : 2
Format                                   : AC-3
Format/Info                              : Audio Coding 3
Codec ID                                 : A_AC3
Duration                                 : 2 h 5 min
Bit rate mode                            : Constant
Bit rate                                 : 192 kb/s
Channel(s)                               : 2 channels
Channel positions                        : Front: L R
Sampling rate                            : 48.0 kHz
Frame rate                               : 31.250 FPS (1536 SPF)
Bit depth                                : 16 bits
Compression mode                         : Lossy
Stream size                              : 172 MiB (2%)
Title                                    : БЗ - Inter
Language                                 : Ukrainian
Service kind                             : Complete Main
Default                                  : Yes
Forced                                   : No

Audio #2
ID                                       : 3
Format                                   : AC-3
Format/Info                              : Audio Coding 3
Codec ID                                 : A_AC3
Duration                                 : 2 h 5 min
Bit rate mode                            : Constant
Bit rate                                 : 192 kb/s
Channel(s)                               : 2 channels
Channel positions                        : Front: L R
Sampling rate                            : 48.0 kHz
Frame rate                               : 31.250 FPS (1536 SPF)
Bit depth                                : 16 bits
Compression mode                         : Lossy
Stream size                              : 172 MiB (2%)
Title                                    : БЗ - ICTV
Language                                 : Ukrainian
Service kind                             : Complete Main
Default                                  : No
Forced                                   : No

Audio #3
ID                                       : 4
Format                                   : AC-3
Format/Info                              : Audio Coding 3
Codec ID                                 : A_AC3
Duration                                 : 2 h 5 min
Bit rate mode                            : Constant
Bit rate                                 : 384 kb/s
Channel(s)                               : 6 channels
Channel positions                        : Front: L C R, Side: L R, LFE
Sampling rate                            : 48.0 kHz
Frame rate                               : 31.250 FPS (1536 SPF)
Bit depth                                : 16 bits
Compression mode                         : Lossy
Stream size                              : 344 MiB (4%)
Title                                    : Original
Language                                 : English
Service kind                             : Complete Main
Default                                  : No
Forced                                   : No

Text #1
ID                                       : 5
Format                                   : UTF-8
Codec ID                                 : S_TEXT/UTF8
Codec ID/Info                            : UTF-8 Plain Text
Duration                                 : 2 h 6 min
Bit rate                                 : 76 b/s
Count of elements                        : 1225
Stream size                              : 71.0 KiB (0%)
Title                                    : Full (by antikillW)
Language                                 : Ukrainian
Default                                  : Yes
Forced                                   : No

Text #2
ID                                       : 6
Format                                   : UTF-8
Codec ID                                 : S_TEXT/UTF8
Codec ID/Info                            : UTF-8 Plain Text
Duration                                 : 1 h 57 min
Bit rate                                 : 48 b/s
Count of elements                        : 1211
Stream size                              : 42.3 KiB (0%)
Title                                    : Full
Language                                 : English
Default                                  : No
Forced                                   : No

Menu
00:00:00.000                             : en:Count to Ten
00:04:02.450                             : en:Engagement Party
00:12:57.860                             : en:Agent Lindsey Farris
00:21:18.068                             : en:Chopper Chase
00:26:32.299                             : en:Intelligence
00:32:56.474                             : en:Trust and Understanding
00:39:30.493                             : en:The Vatican
00:46:56.438                             : en:Finding Davian
00:51:44.309                             : en:Identity Theft
00:57:34.868                             : en:Dangerous Cargo
01:02:08.975                             : en:Bridge Attack
01:09:06.642                             : en:The Tables Turn
01:18:19.236                             : en:Shanghai
01:23:31.381                             : en:Skyscraper
01:27:35.083                             : en:Night Flight
01:34:08.017                             : en:It's Complicated
01:42:43.448                             : en:Mobile Navigator
01:51:10.830                             : en:Point and Shoot
01:57:27.832                             : en:Mission: Honeymoon
02:05:24.266                             : en:Chapter 22

Світлини



4. Місія неможлива: Протокол Фантом / Mission: Impossible - Ghost Protocol (2011) 1080p H.265 Ukr/Eng | Sub Ukr/Eng
Місія неможлива: Протокол Фантом / Mission: Impossible - Ghost Protocol (2011) 1080p H.265 Ukr/Eng | Sub Ukr/Eng

Місія нездійсненна. Колекція / Mission: Impossible. Collection (1996, 2000, 2006, 2011, 2015, 2018) 1080p H.265 Ukr/Eng | Sub Ukr/Eng

Жанр: екшн, пригодницький, трилер

Країна: США

Кінокомпанія: Paramount Pictures, Skydance Productions, Bad Robot, FilmWorks, Stillking Films, TC Productions

Режисер: Бред Бьорд

Актори: Том Круз, Пола Петтон, Саймон Пег, Джеремі Реннер, Володимир Машков

Сюжет:
Коли агент спецпідрозділу «Місія нездійсненна» Ітан Гант зі своїми напарниками виявляються втягнуті в чергову змову вселенського масштабу, президент дає добро на виконання протоколу «Фантом», суть якого в ліквідації наших героїв. А вся ця каша почалася з чималого підриву Кремля. Тепер Ітану належить виконати чергову нездійсненну місію, врятувати людство і повернути собі добре ім'я.

Тривалість: 02:12:56
Якість:

Відео: H.265 (HEVC)
Розмір кадру: 1920 x 800
Бітрейт: 6 164 кб/с
Частота кадрів: 23.976 fps
Глибина кольору: 0.167 BPP (Bits per Pixel), 10 біт

Увага! Перед завантаженням переконайтесь, що ваш пристрій відтворення (та/або ПЗ) підтримує H.265 (HEVC)
Аудіо # 1: українська , професійний дубльований, 5.1, 1510 кб/с,
Аудіо # 2: англійська , оригінал, AC-3 5.1, 448 кб/с

Субтитри # 1: українська , Forced, програмні (м'які), *.srt
Субтитри # 2: українська , Full, програмні (м'які), *.srt
Субтитри # 3: англійська , Forced, програмні (м'які), *.srt
Субтитри # 4: англійська , Full, програмні (м'які), *.srt
Субтитри # 5: англійська , SDH, програмні (м'які), *.srt

Info
Код:
General
Unique ID                                : 128929696890602808692203512448874224250 (0x60FEF4D6624504D2735AD258C3D49A7A)
Complete name                            : G:\Video\Films\Collection\Mission - Impossible. Collection (1996-2018) 1080p H.265\4. Mission Impossible IV - Ghost Protocol (2011) 1080p H.265 [UKR_ENG].
Format                                   :
Format version                           : Version 4 / Version 2
File size                                : 7.54 GiB
Duration                                 : 2 h 12 min
Overall bit rate                         : 8 124 kb/s
Movie name                               : Mission: Impossible - Ghost Protocol (2011)
Encoded date                             : UTC 2018-11-17 13:19:51
Writing application                      : v20.0.0 ('I Am The Sun') 32-bit
Writing library                          : libebml v1.3.5 + v1.4.8
Cover                                    : Yes
Attachments                              : cover.jpg

Video
ID                                       : 1
Format                                   : HEVC
Format/Info                              : High Efficiency Video Coding
Format profile                           : Main [email protected]@High
Codec ID                                 : V_MPEGH/ISO/HEVC
Duration                                 : 2 h 12 min
Bit rate                                 : 6 164 kb/s
Width                                    : 1 920 pixels
Height                                   : 800 pixels
Display aspect ratio                     : 2.40:1
Frame rate mode                          : Constant
Frame rate                               : 23.976 (24000/1001) FPS
Color space                              : YUV
Chroma subsampling                       : 4:2:0
Bit depth                                : 10 bits
Bits/(Pixel*Frame)                       : 0.167
Stream size                              : 5.72 GiB (76%)
Writing library                          : x265 2.7+1-2aa737a99f51:[Windows][GCC 8.0.1][64 bit] 10bit
Encoding settings                        : cpuid=1173503 / frame-threads=4 / numa-pools=16 / wpp / no-pmode / no-pme / no-psnr / no-ssim / log-level=2 / input-csp=1 / input-res=1920x800 / interlace=0 / total-frames=191240 / level-idc=41 / high-tier=1 / uhd-bd=0 / ref=5 / no-allow-non-conformance / no-repeat-headers / annexb / no-aud / no-hrd / info / hash=0 / no-temporal-layers / open-gop / min-keyint=23 / keyint=240 / gop-lookahead=0 / bframes=8 / b-adapt=2 / b-pyramid / bframe-bias=0 / rc-lookahead=60 / lookahead-slices=4 / scenecut=40 / radl=0 / no-intra-refresh / ctu=64 / min-cu-size=8 / rect / amp / max-tu-size=32 / tu-inter-depth=4 / tu-intra-depth=4 / limit-tu=1 / rdoq-level=2 / dynamic-rd=0.00 / no-ssim-rd / signhide / no-tskip / nr-intra=0 / nr-inter=0 / no-constrained-intra / no-strong-intra-smoothing / max-merge=3 / limit-refs=2 / limit-modes / me=3 / subme=7 / merange=92 / temporal-mvp / weightp / weightb / no-analyze-src-pics / deblock=-3:-3 / no-sao / no-sao-non-deblock / rd=6 / no-early-skip / rskip / no-fast-intra / no-tskip-fast / no-cu-lossless / b-intra / no-splitrd-skip / rdpenalty=0 / psy-rd=2.00 / psy-rdoq=1.00 / no-rd-refine / no-lossless / cbqpoffs=-2 / crqpoffs=-2 / rc=crf / crf=19.0 / qcomp=0.75 / qpstep=4 / stats-write=0 / stats-read=0 / vbv-maxrate=50000 / vbv-bufsize=50000 / vbv-init=0.9 / crf-max=0.0 / crf-min=0.0 / ipratio=1.40 / pbratio=1.30 / aq-mode=1 / aq-strength=1.00 / cutree / zone-count=1 / zones: / start-frame=180464 / end-frame=189261 / qp=35 / no-strict-cbr / qg-size=32 / no-rc-grain / qpmax=69 / qpmin=0 / no-const-vbv / sar=1 / overscan=0 / videoformat=5 / range=0 / colorprim=2 / transfer=2 / colormatrix=1 / chromaloc=0 / display-window=0 / max-cll=0,0 / min-luma=0 / max-luma=1023 / log2-max-poc-lsb=8 / vui-timing-info / vui-hrd-info / slices=1 / no-opt-qp-pps / no-opt-ref-list-length-pps / no-multi-pass-opt-rps / scenecut-bias=0.05 / no-opt-cu-delta-qp / no-aq-motion / no-hdr / no-hdr-opt / no-dhdr10-opt / analysis-reuse-level=5 / scale-factor=0 / refine-intra=0 / refine-inter=0 / refine-mv=0 / no-limit-sao / ctu-info=0 / no-lowpass-dct / refine-mv-type=0 / copy-pic=1
Default                                  : Yes
Forced                                   : No
Color range                              : Limited
Matrix coefficients                      : BT.709

Audio #1
ID                                       : 2
Format                                   :
Format/Info                              : Digital Theater Systems
Codec ID                                 : A_DTS
Duration                                 : 2 h 12 min
Bit rate mode                            : Constant
Bit rate                                 : 1 509 kb/s
Channel(s)                               : 6 channels
Channel positions                        : Front: L C R, Side: L R, LFE
Sampling rate                            : 48.0 kHz
Frame rate                               : 93.750 FPS (512 SPF)
Bit depth                                : 24 bits
Compression mode                         : Lossy
Delay relative to video                  : 35 ms
Stream size                              : 1.40 GiB (19%)
Title                                    : ПД - Blu-Ray - [LeDoyen] 5.1 1509 kbps
Language                                 : Ukrainian
Default                                  : Yes
Forced                                   : Yes

Audio #2
ID                                       : 3
Format                                   : AC-3
Format/Info                              : Audio Coding 3
Codec ID                                 : A_AC3
Duration                                 : 2 h 12 min
Bit rate mode                            : Constant
Bit rate                                 : 448 kb/s
Channel(s)                               : 6 channels
Channel positions                        : Front: L C R, Side: L R, LFE
Sampling rate                            : 48.0 kHz
Frame rate                               : 31.250 FPS (1536 SPF)
Bit depth                                : 16 bits
Compression mode                         : Lossy
Stream size                              : 426 MiB (6%)
Title                                    : Original - 5.1 448 kbps
Language                                 : English
Service kind                             : Complete Main
Default                                  : No
Forced                                   : No

Text #1
ID                                       : 4
Format                                   : UTF-8
Codec ID                                 : S_TEXT/UTF8
Codec ID/Info                            : UTF-8 Plain Text
Duration                                 : 1 h 55 min
Bit rate                                 : 3 b/s
Count of elements                        : 86
Stream size                              : 3.27 KiB (0%)
Title                                    : Forced
Language                                 : Ukrainian
Default                                  : Yes
Forced                                   : Yes

Text #2
ID                                       : 5
Format                                   : UTF-8
Codec ID                                 : S_TEXT/UTF8
Codec ID/Info                            : UTF-8 Plain Text
Duration                                 : 2 h 11 min
Bit rate                                 : 62 b/s
Count of elements                        : 1299
Stream size                              : 60.4 KiB (0%)
Title                                    : Full
Language                                 : Ukrainian
Default                                  : No
Forced                                   : No

Text #3
ID                                       : 6
Format                                   : UTF-8
Codec ID                                 : S_TEXT/UTF8
Codec ID/Info                            : UTF-8 Plain Text
Duration                                 : 1 h 55 min
Bit rate                                 : 2 b/s
Count of elements                        : 84
Stream size                              : 1.77 KiB (0%)
Title                                    : Forced
Language                                 : English
Default                                  : No
Forced                                   : No

Text #4
ID                                       : 7
Format                                   : UTF-8
Codec ID                                 : S_TEXT/UTF8
Codec ID/Info                            : UTF-8 Plain Text
Duration                                 : 2 h 2 min
Bit rate                                 : 43 b/s
Count of elements                        : 1268
Stream size                              : 38.8 KiB (0%)
Title                                    : Full
Language                                 : English
Default                                  : No
Forced                                   : No

Text #5
ID                                       : 8
Format                                   : UTF-8
Codec ID                                 : S_TEXT/UTF8
Codec ID/Info                            : UTF-8 Plain Text
Duration                                 : 2 h 5 min
Bit rate                                 : 48 b/s
Count of elements                        : 1588
Stream size                              : 44.4 KiB (0%)
Title                                    : SDH
Language                                 : English
Default                                  : No
Forced                                   : No

Menu
00:00:00.000                             : en:
00:05:00.000                             : en:
00:10:00.000                             : en:
00:15:00.000                             : en:
00:20:00.000                             : en:
00:25:00.000                             : en:
00:30:00.000                             : en:
00:35:00.000                             : en:
00:40:00.000                             : en:
00:45:00.000                             : en:
00:50:00.000                             : en:
00:55:00.000                             : en:
01:00:00.000                             : en:
01:05:00.000                             : en:
01:10:00.000                             : en:
01:15:00.000                             : en:
01:20:00.000                             : en:
01:25:00.000                             : en:
01:30:00.000                             : en:
01:35:00.000                             : en:
01:40:00.000                             : en:
01:45:00.000                             : en:
01:50:00.000                             : en:
01:55:00.000                             : en:
02:00:00.000                             : en:
02:05:00.000                             : en:
02:10:00.000                             : en:

Світлини



5. Місія неможлива. Нація ізгоїв / Mission: Impossible - Rogue Nation (2015) 1080p H.265 Ukr/Eng | Sub Ukr/Eng
Місія неможлива. Нація ізгоїв / Mission: Impossible - Rogue Nation (2015) 1080p H.265 Ukr/Eng | Sub Ukr/Eng

Місія нездійсненна. Колекція / Mission: Impossible. Collection (1996, 2000, 2006, 2011, 2015, 2018) 1080p H.265 Ukr/Eng | Sub Ukr/Eng

Жанр: екшн, пригодницький, трилер

Країна: США, Гонконґ, Китай

Кінокомпанія: Paramount Pictures, Skydance Productions, Bad Robot

Режисер: Крістофер МакКворрі / Christopher McQuarrie

Актори: Том Круз / Tom Cruise, Джеремі Реннер / Jeremy Renner, Саймон Пеґ / Simon Pegg, Ребекка Ферґюсон / Rebecca Ferguson, Алек Болдвін / Alec Baldwin, Амеріка Оліво / America Olivo, Вінґ Реймз / Ving Rhames, Шон Гарріс / Sean Harris, Саймон МакБерні / Simon McBurney, Ґерміона Корфілд / Hermione Corfield, Єнс Гультен / Jens Hultén та інші
Сюжет:
Для бувалого Ітана Ганта і його команди настали не найлегші часи. Його роботодавця - агентство МВФ розформовують і, як виявилося, не без участі таємничого Синдикату. Ця надсекретна організація вербує фахівців, агентів-ізгоїв, яких можна використовувати навіть для підриву безпеки держав, якщо за це добре заплатять. Але Ганту ніхто не вірить, коли він відкриває існування Синдикату. Агенту нічого не залишається, як виконати місію, яка може стати для нього останньою...

Тривалість: 02:11:33
Якість:

Відео: H.265 (HEVC)
Розмір кадру: 1920 x 804
Бітрейт: 6 827 кб/с
Частота кадрів: 23.976 fps
Глибина кольору: 0.184 BPP (Bits per Pixel), 10 біт

Увага! Перед завантаженням переконайтесь, що ваш пристрій відтворення (та/або ПЗ) підтримує H.265 (HEVC)
Аудіо # 1: українська , професійний дубльований, AC-3 5.1, 448 кб/с,
Аудіо # 2: англійська , оригінал, AC-3 5.1, 640 кб/с

Субтитри # 1: українська , Forced, програмні (м'які), *.srt
Субтитри # 2: українська , Full, програмні (м'які), *.srt
Субтитри # 3: англійська , Forced, програмні (м'які), *.srt
Субтитри # 4: англійська , Full, програмні (м'які), *.srt

Info
Код:
General
Unique ID                                : 47139596778548705511090649964830011529 (0x2376C18FC89EA5F6CFA339AF93D43089)
Complete name                            : G:\Video\Films\Collection\Mission - Impossible. Collection (1996-2018) 1080p H.265\5. Mission Impossible V - Rogue Nation (2015) 1080p H.265 [UKR_ENG].
Format                                   :
Format version                           : Version 4 / Version 2
File size                                : 7.28 GiB
Duration                                 : 2 h 11 min
Overall bit rate                         : 7 917 kb/s
Movie name                               : Mission Impossible - Rogue Nation (2015)
Encoded date                             : UTC 2018-11-17 13:06:01
Writing application                      : v20.0.0 ('I Am The Sun') 32-bit
Writing library                          : libebml v1.3.5 + v1.4.8
Cover                                    : Yes
Attachments                              : cover.jpg

Video
ID                                       : 1
Format                                   : HEVC
Format/Info                              : High Efficiency Video Coding
Format profile                           : Main [email protected]@High
Codec ID                                 : V_MPEGH/ISO/HEVC
Duration                                 : 2 h 11 min
Bit rate                                 : 6 827 kb/s
Width                                    : 1 920 pixels
Height                                   : 804 pixels
Display aspect ratio                     : 2.40:1
Frame rate mode                          : Constant
Frame rate                               : 23.976 (24000/1001) FPS
Color space                              : YUV
Chroma subsampling                       : 4:2:0
Bit depth                                : 10 bits
Bits/(Pixel*Frame)                       : 0.184
Stream size                              : 6.27 GiB (86%)
Writing library                          : x265 2.7+1-2aa737a99f51:[Windows][GCC 8.0.1][64 bit] 10bit
Encoding settings                        : cpuid=1173503 / frame-threads=4 / numa-pools=16 / wpp / no-pmode / no-pme / no-psnr / no-ssim / log-level=2 / input-csp=1 / input-res=1920x804 / interlace=0 / total-frames=189261 / level-idc=41 / high-tier=1 / uhd-bd=0 / ref=5 / no-allow-non-conformance / no-repeat-headers / annexb / no-aud / no-hrd / info / hash=0 / no-temporal-layers / open-gop / min-keyint=23 / keyint=240 / gop-lookahead=0 / bframes=8 / b-adapt=2 / b-pyramid / bframe-bias=0 / rc-lookahead=60 / lookahead-slices=4 / scenecut=40 / radl=0 / no-intra-refresh / ctu=64 / min-cu-size=8 / rect / amp / max-tu-size=32 / tu-inter-depth=4 / tu-intra-depth=4 / limit-tu=1 / rdoq-level=2 / dynamic-rd=0.00 / no-ssim-rd / signhide / no-tskip / nr-intra=0 / nr-inter=0 / no-constrained-intra / no-strong-intra-smoothing / max-merge=3 / limit-refs=2 / limit-modes / me=3 / subme=7 / merange=57 / temporal-mvp / weightp / weightb / no-analyze-src-pics / deblock=-3:-3 / no-sao / no-sao-non-deblock / rd=6 / no-early-skip / rskip / no-fast-intra / no-tskip-fast / no-cu-lossless / b-intra / no-splitrd-skip / rdpenalty=0 / psy-rd=2.00 / psy-rdoq=1.00 / no-rd-refine / no-lossless / cbqpoffs=-2 / crqpoffs=-2 / rc=crf / crf=19.0 / qcomp=0.75 / qpstep=4 / stats-write=0 / stats-read=0 / vbv-maxrate=50000 / vbv-bufsize=50000 / vbv-init=0.9 / crf-max=0.0 / crf-min=0.0 / ipratio=1.40 / pbratio=1.30 / aq-mode=1 / aq-strength=1.00 / cutree / zone-count=1 / zones: / start-frame=180464 / end-frame=189261 / qp=35 / no-strict-cbr / qg-size=32 / no-rc-grain / qpmax=69 / qpmin=0 / no-const-vbv / sar=1 / overscan=0 / videoformat=5 / range=0 / colorprim=2 / transfer=2 / colormatrix=1 / chromaloc=0 / display-window=0 / max-cll=0,0 / min-luma=0 / max-luma=1023 / log2-max-poc-lsb=8 / vui-timing-info / vui-hrd-info / slices=1 / no-opt-qp-pps / no-opt-ref-list-length-pps / no-multi-pass-opt-rps / scenecut-bias=0.05 / no-opt-cu-delta-qp / no-aq-motion / no-hdr / no-hdr-opt / no-dhdr10-opt / analysis-reuse-level=5 / scale-factor=0 / refine-intra=0 / refine-inter=0 / refine-mv=0 / no-limit-sao / ctu-info=0 / no-lowpass-dct / refine-mv-type=0 / copy-pic=1
Default                                  : Yes
Forced                                   : No
Color range                              : Limited
Matrix coefficients                      : BT.709

Audio #1
ID                                       : 2
Format                                   : AC-3
Format/Info                              : Audio Coding 3
Codec ID                                 : A_AC3
Duration                                 : 2 h 11 min
Bit rate mode                            : Constant
Bit rate                                 : 448 kb/s
Channel(s)                               : 6 channels
Channel positions                        : Front: L C R, Side: L R, LFE
Sampling rate                            : 48.0 kHz
Frame rate                               : 31.250 FPS (1536 SPF)
Bit depth                                : 16 bits
Compression mode                         : Lossy
Stream size                              : 422 MiB (6%)
Title                                    : ПД - DVD
Language                                 : Ukrainian
Service kind                             : Complete Main
Default                                  : Yes
Forced                                   : No

Audio #2
ID                                       : 3
Format                                   : AC-3
Format/Info                              : Audio Coding 3
Codec ID                                 : A_AC3
Duration                                 : 2 h 11 min
Bit rate mode                            : Constant
Bit rate                                 : 640 kb/s
Channel(s)                               : 6 channels
Channel positions                        : Front: L C R, Side: L R, LFE
Sampling rate                            : 48.0 kHz
Frame rate                               : 31.250 FPS (1536 SPF)
Bit depth                                : 16 bits
Compression mode                         : Lossy
Stream size                              : 602 MiB (8%)
Title                                    : Original
Language                                 : English
Service kind                             : Complete Main
Default                                  : No
Forced                                   : No

Text #1
ID                                       : 4
Format                                   : UTF-8
Codec ID                                 : S_TEXT/UTF8
Codec ID/Info                            : UTF-8 Plain Text
Duration                                 : 1 h 57 min
Bit rate                                 : 2 b/s
Count of elements                        : 49
Stream size                              : 1.85 KiB (0%)
Title                                    : Forced
Language                                 : Ukrainian
Default                                  : Yes
Forced                                   : No

Text #2
ID                                       : 5
Format                                   : UTF-8
Codec ID                                 : S_TEXT/UTF8
Codec ID/Info                            : UTF-8 Plain Text
Duration                                 : 2 h 3 min
Bit rate                                 : 77 b/s
Count of elements                        : 1259
Stream size                              : 70.2 KiB (0%)
Title                                    : Full
Language                                 : Ukrainian
Default                                  : No
Forced                                   : No

Text #3
ID                                       : 6
Format                                   : UTF-8
Codec ID                                 : S_TEXT/UTF8
Codec ID/Info                            : UTF-8 Plain Text
Duration                                 : 1 h 53 min
Bit rate                                 : 0 b/s
Count of elements                        : 22
Stream size                              : 650 Bytes (0%)
Title                                    : Forced
Language                                 : English
Default                                  : No
Forced                                   : No

Text #4
ID                                       : 7
Format                                   : UTF-8
Codec ID                                 : S_TEXT/UTF8
Codec ID/Info                            : UTF-8 Plain Text
Duration                                 : 2 h 3 min
Bit rate                                 : 49 b/s
Count of elements                        : 1233
Stream size                              : 44.7 KiB (0%)
Title                                    : Full
Language                                 : English
Default                                  : No
Forced                                   : No

Menu
00:00:00.000                             : en:"Open the Door!" / Opening Titles
00:09:53.092                             : en:Luck Runs Out
00:20:45.703                             : en:Six Months Later
00:25:32.072                             : en:Opera Tickets
00:32:00.669                             : en:At the Opera
00:40:03.443                             : en:A Rogue Nation
00:49:35.556                             : en:Morocco
01:01:01.157                             : en:Changing the Profile
01:09:51.687                             : en:High Speed Chase
01:20:20.858                             : en:...And We Helped Him Steal It.
01:29:29.322                             : en:Delivering a Message
01:38:32.824                             : en:The Prime Minister
01:48:19.410                             : en:I Am the Disk
01:57:13.944                             : en:Face To Face
02:03:02.709                             : en:Welcome to the IMF
02:04:42.175                             : en:Closing Credits

Світлини



6. Місія Неможлива: Фолаут / Mission: Impossible - Fallout (2018) 1080p H.265 (IMAX Edition) Ukr/Eng | Sub Ukr/Eng
Місія Неможлива: Фолаут / Mission: Impossible - Fallout (2018) 1080p H.265 (IMAX Edition) Ukr/Eng | Sub Ukr/Eng

Місія нездійсненна. Колекція / Mission: Impossible. Collection (1996, 2000, 2006, 2011, 2015, 2018) 1080p H.265 Ukr/Eng | Sub Ukr/Eng

Жанр: бойовик, пригоди, трилер

Країна: США

Кінокомпанія: Paramount Pictures, Bad Robot, Skydance Productions

Режисер: Крістофер МакКуоррі

Актори: Том Круз, Ребекка Ферґюсон, Генрі Кавілл, Мішель Монаген, Ванесса Кірбі, Саймон Пегг, Вінг Реймс, Шон Харріс, Анджела Бассетт, Алек Болдуін та інші

Сюжет:
Чергова місія провалилася і тепер світ з острахом чекає на її згубні наслідки. Команда спецагентів начолі з Ітаном Хантом береться виправляти ситуацію. Та зробити це непросто, коли кожен твій крок керівництво ставить під сумнів.

Тривалість: 02:27:24
Якість:

Відео: H.265 (HEVC)
Розмір кадру: 1920 x 1012
Бітрейт: 7 427 кб/с
Частота кадрів: 23.976 fps
Глибина кольору: 0.159 BPP (Bits per Pixel), 10 біт

Увага! Перед завантаженням переконайтесь, що ваш пристрій відтворення (та/або ПЗ) підтримує H.265 (HEVC)
Аудіо # 1: українська , професійний дубльований, AC-3 2.0, 192 кб/с,
Аудіо # 2: англійська , оригінал, AC-3 5.1, 448 кб/с

Субтитри # 1: українська , Forced, програмні (м'які), *.srt
Субтитри # 2: українська , Full, програмні (м'які), *.srt
Субтитри # 3: англійська , Full, програмні (м'які), *.srt

Info
Код:
General
Unique ID                                : 315046419651142003847279213751995160695 (0xED03BBBCAEA5DBB185D1BEBA0DCF5877)
Complete name                            : G:\Video\Films\Collection\Mission - Impossible. Collection (1996-2018) 1080p H.265\6. Mission Impossible - Fallout (2018) [IMAX] 1080p H.265 [UKR_ENG].
Format                                   :
Format version                           : Version 4 / Version 2
File size                                : 8.31 GiB
Duration                                 : 2 h 27 min
Overall bit rate                         : 8 069 kb/s
Movie name                               : Mission Impossible - Fallout (2018) [IMAX]
Encoded date                             : UTC 2018-11-17 12:57:17
Writing application                      : v20.0.0 ('I Am The Sun') 32-bit
Writing library                          : libebml v1.3.5 + v1.4.8
Cover                                    : Yes
Attachments                              : Cover.jpg

Video
ID                                       : 1
Format                                   : HEVC
Format/Info                              : High Efficiency Video Coding
Format profile                           : Main [email protected]@High
Codec ID                                 : V_MPEGH/ISO/HEVC
Duration                                 : 2 h 27 min
Bit rate                                 : 7 426 kb/s
Width                                    : 1 920 pixels
Height                                   : 1 012 pixels
Display aspect ratio                     : 1.897
Frame rate mode                          : Constant
Frame rate                               : 23.976 (24000/1001) FPS
Color space                              : YUV
Chroma subsampling                       : 4:2:0
Bit depth                                : 10 bits
Bits/(Pixel*Frame)                       : 0.159
Stream size                              : 7.65 GiB (92%)
Title                                    : Mission Impossible - Fallout (2018) [IMAX]
Writing library                          : x265 2.8+74-fd517ae68f93:[Windows][GCC 7.3.0][64 bit] 10bit
Encoding settings                        : cpuid=1111039 / frame-threads=13 / numa-pools=12 / wpp / no-pmode / no-pme / no-psnr / no-ssim / log-level=3 / input-csp=1 / input-res=1920x1012 / interlace=0 / total-frames=0 / level-idc=41 / high-tier=1 / uhd-bd=0 / ref=5 / allow-non-conformance / no-repeat-headers / annexb / no-aud / no-hrd / info / hash=0 / no-temporal-layers / no-open-gop / min-keyint=24 / keyint=240 / gop-lookahead=0 / bframes=9 / b-adapt=2 / b-pyramid / bframe-bias=0 / rc-lookahead=40 / lookahead-slices=6 / scenecut=40 / radl=0 / no-intra-refresh / ctu=64 / min-cu-size=8 / rect / amp / max-tu-size=32 / tu-inter-depth=1 / tu-intra-depth=1 / limit-tu=0 / rdoq-level=0 / dynamic-rd=0.00 / no-ssim-rd / signhide / no-tskip / nr-intra=0 / nr-inter=0 / no-constrained-intra / no-strong-intra-smoothing / max-merge=2 / limit-refs=3 / no-limit-modes / me=3 / subme=7 / merange=57 / temporal-mvp / weightp / no-weightb / no-analyze-src-pics / deblock=-2:-2 / no-sao / no-sao-non-deblock / rd=3 / no-early-skip / rskip / no-fast-intra / no-tskip-fast / no-cu-lossless / no-b-intra / no-splitrd-skip / rdpenalty=0 / psy-rd=2.00 / psy-rdoq=0.00 / no-rd-refine / no-lossless / cbqpoffs=0 / crqpoffs=0 / rc=crf / crf=19.0 / qcomp=0.70 / qpstep=4 / stats-write=0 / stats-read=0 / vbv-maxrate=50000 / vbv-bufsize=50000 / vbv-init=0.9 / crf-max=0.0 / crf-min=0.0 / ipratio=1.40 / pbratio=1.30 / aq-mode=1 / aq-strength=1.00 / cutree / zone-count=0 / no-strict-cbr / qg-size=32 / no-rc-grain / qpmax=69 / qpmin=0 / no-const-vbv / sar=1 / overscan=0 / videoformat=5 / range=0 / colorprim=1 / transfer=1 / colormatrix=1 / chromaloc=0 / display-window=0 / max-cll=0,0 / min-luma=0 / max-luma=1023 / log2-max-poc-lsb=8 / vui-timing-info / vui-hrd-info / slices=1 / no-opt-qp-pps / no-opt-ref-list-length-pps / no-multi-pass-opt-rps / scenecut-bias=0.05 / no-opt-cu-delta-qp / no-aq-motion / no-hdr / no-hdr-opt / no-dhdr10-opt / no-idr-recovery-sei / analysis-reuse-level=5 / scale-factor=0 / refine-intra=0 / refine-inter=0 / refine-mv=0 / no-limit-sao / ctu-info=0 / no-lowpass-dct / refine-mv-type=0 / copy-pic=1 / max-ausize-factor=1.0 / no-dynamic-refine / no-single-sei
Default                                  : Yes
Forced                                   : No
Color range                              : Limited
Color primaries                          : BT.709
Transfer characteristics                 : BT.709
Matrix coefficients                      : BT.709

Audio #1
ID                                       : 2
Format                                   : AC-3
Format/Info                              : Audio Coding 3
Codec ID                                 : A_AC3
Duration                                 : 2 h 27 min
Bit rate mode                            : Constant
Bit rate                                 : 192 kb/s
Channel(s)                               : 2 channels
Channel positions                        : Front: L R
Sampling rate                            : 48.0 kHz
Frame rate                               : 31.250 FPS (1536 SPF)
Bit depth                                : 16 bits
Compression mode                         : Lossy
Stream size                              : 202 MiB (2%)
Title                                    : ПД - iTunes
Language                                 : Ukrainian
Service kind                             : Complete Main
Default                                  : Yes
Forced                                   : Yes

Audio #2
ID                                       : 3
Format                                   : AC-3
Format/Info                              : Audio Coding 3
Codec ID                                 : A_AC3
Duration                                 : 2 h 27 min
Bit rate mode                            : Constant
Bit rate                                 : 448 kb/s
Channel(s)                               : 6 channels
Channel positions                        : Front: L C R, Side: L R, LFE
Sampling rate                            : 48.0 kHz
Frame rate                               : 31.250 FPS (1536 SPF)
Bit depth                                : 16 bits
Compression mode                         : Lossy
Stream size                              : 472 MiB (6%)
Title                                    : Original
Language                                 : English
Service kind                             : Complete Main
Default                                  : No
Forced                                   : No

Text #1
ID                                       : 4
Format                                   : UTF-8
Codec ID                                 : S_TEXT/UTF8
Codec ID/Info                            : UTF-8 Plain Text
Duration                                 : 2 h 25 min
Bit rate                                 : 1 b/s
Count of elements                        : 37
Stream size                              : 1.31 KiB (0%)
Title                                    : Forced
Language                                 : Ukrainian
Default                                  : Yes
Forced                                   : Yes

Text #2
ID                                       : 5
Format                                   : UTF-8
Codec ID                                 : S_TEXT/UTF8
Codec ID/Info                            : UTF-8 Plain Text
Duration                                 : 2 h 26 min
Bit rate                                 : 75 b/s
Count of elements                        : 1576
Stream size                              : 80.7 KiB (0%)
Title                                    : Full
Language                                 : Ukrainian
Default                                  : No
Forced                                   : No

Text #3
ID                                       : 6
Format                                   : UTF-8
Codec ID                                 : S_TEXT/UTF8
Codec ID/Info                            : UTF-8 Plain Text
Duration                                 : 10 min 13 s
Bit rate                                 : 77 b/s
Count of elements                        : 168
Stream size                              : 5.84 KiB (0%)
Title                                    : Full
Language                                 : English
Default                                  : No
Forced                                   : No

Menu
00:00:00.000                             : :Глава 1
00:12:37.423                             : :Глава 2
00:26:21.079                             : :Глава 3
00:38:40.985                             : :Глава 4
00:52:24.683                             : :Глава 5
01:10:38.692                             : :Глава 6
01:21:33.513                             : :Глава 7
01:31:56.052                             : :Глава 8
01:46:13.533                             : :Глава 9
01:59:24.574                             : :Глава 10
02:13:25.038                             : :Глава 11
02:22:40.301                             : :Глава 12

Світлини




Джерело:
Особиста оцінка: 10 - без зайвих вагань рекомендую всім!


>>> Усі мої релізи <<<



Срібний реліз (на рейтинг впливає 50% завантаженого)
 Трекер:    Зареєстрований   

Завантажити / скачати фільм українською



відео для новачків



 Зареєстрований:   2018-11-17 17:09
 Розмір:   44.57 GB 
 Оцінка фільму:   9.6/10 (Голосів: 7)
   
Electroz 
Відео Гуртом - підтримка та поширення
Відео Гуртом - підтримка та поширення


З нами з: 18.09.14
Востаннє: 14.12.18
Повідомлень: 3178

2018-11-17 17:23  
Я вже вам писав про текст по центрі, для чого ви це далі робите?
Правила написано:

Всі рядки в "Майстрі оформлення релізу" є обов'язковими, окрім:
- параметрів елементів, складових, яких немає в вашому релізі,
- інформації, якої немає в вільному доступі (Вікіпедія, IMDB, та інші).

Код, отриманий в результаті заповнення, в разі необхідності мінімально редагується, наприклад:
- повнорозмірні скріншоти ховаються під спойлер,
- при бажанні, додаються додаткові лінійки для тех. параметрів, та інше.
- не змінюйте вирівнювання тексту, він має бути вирівняний зліва.

-Star-Lord- 
VIP


З нами з: 09.08.18
Востаннє: 14.12.18
Повідомлень: 342

2018-11-17 17:34  
Electroz
Гаразд, більше не буду. Не бачив цього у правилах, або не звернув уваги.

Ваш часовий пояс: GMT + 2 Години

Нова тема   Відповісти