Брудний Джон (Сезон 1) / Dirty John (Season 1) (2018)

Нові коментарі

Нова тема   Відповісти
Автор Повідомлення
DniproFilm 
VIP


З нами з: 10.10.18
Востаннє: 20.02.19
Повідомлень: 291

2018-11-17 16:09  
Брудний Джон (Сезон 1) / Dirty John (Season 1) (2018)

Брудний Джон (Сезон 1) / Dirty John (Season 1) (2018)


Жанр: драма
Країна: США



Кінокомпанія / телеканал: Atlas Entertainment, LA Times Studios, Universal Cable Productions
Режисер: Джеффрі Рейнер
Актори/ролі озвучують: Ерик Бана, Коні Брітон, Джулія Гарнер, Джуно Темпл, Олександр Гомез, Джейк Ейбел, Ванесса Мартінез, Брент Андерсон та інші

Сюжет:
Життя Дебри цілковито змінюється, коли у неї починається роман із лікарем Джоном. Але з часом Дебра розуміє, що втрапила у зловіщу гру психологічних маніпуляцій, а її новий бойфренд - геть не той, за кого себе видає.


Тривалість: 1 серія: ~ 50 хв. (цілком серій: 8)
Перелік серій

1. Approachable Dreams
2. Red Flags and Parades
3. Remember It Was Me
4. Shrapnel
5. Lord High Executioner
6. One Shoe
7. Chivalry
8. This Young Woman Fought Like Hell
Якість:
Відео:
кодек:
розмір кадру: 720x400
бітрейт: ~1800 кб/с

Аудіо # 1:
мова: українська
переклад: багатоголосий закадровий
кодек: 5.1
бітрейт: 384 кб/с

Джерело озвучення:
DniproFilm
Info

Video
ID : 0
Format : MPEG-4 Visual
Format profile : Advanced [email protected]
Format settings : BVOP2
Format settings, BVOP : 2
Format settings, QPel : No
Format settings, GMC : No warppoints
Format settings, Matrix : Default (H.263)
Muxing mode : Packed bitstream
Codec ID :
Codec ID/Hint :
Duration : 50 min 21 s
Bit rate : 1 780 kb/s
Width : 720 pixels
Height : 400 pixels
Display aspect ratio : 16:9
Frame rate : 23.976 (24000/1001) FPS
Color space : YUV
Chroma subsampling : 4:2:0
Bit depth : 8 bits
Scan type : Progressive
Compression mode : Lossy
Bits/(Pixel*Frame) : 0.258
Stream size : 641 MiB (82%)
Writing library : 67

Audio
ID : 1
Format : AC-3
Format/Info : Audio Coding 3
Commercial name : Dolby Digital
Codec ID : 2000
Duration : 50 min 21 s
Bit rate mode : Constant
Bit rate : 384 kb/s
Channel(s) : 6 channels
Channel positions : Front: L C R, Side: L R, LFE
Sampling rate : 48.0 kHz
Frame rate : 31.250 FPS (1536 SPF)
Bit depth : 16 bits
Compression mode : Lossy
Stream size : 138 MiB (18%)
Alignment : Aligned on interleaves
Interleave, duration : 42 ms (1.00 video frame)
Interleave, preload duratio : 512 ms
Service kind : Complete Main
Скріншоти


Увага, присутня відео та аудіореклама.


Джерело: DniproFilm



Авторський реліз (завантажувати можна без реєстрації)
 Трекер:    Зареєстрований   

Завантажити / скачати серіал українською



відео для новачків



 Зареєстрований:   2019-01-15 15:42
 Розмір:   5.57 GB 
 Оцінка серіалу:   9.5/10 (Голосів: 8)
   
tsyka 
Частий відвідувач


З нами з: 12.02.16
Востаннє: 19.02.19
Повідомлень: 34

2018-11-21 14:05  
Народ, а як озвучення в Дніпрофільм?Ще не дивився фільмів з їхнім дубляжем. Але вони активно взялись за роботу )
Ліхтарник 
VIP


З нами з: 16.09.14
Востаннє: 20.02.19
Повідомлень: 1269

2018-12-05 11:48  
tsyka
гарний та й не погано підбирають голоси. Десь на рівні з "Незупиняйпродакшен"

Андрерад 
Свій


З нами з: 09.06.14
Востаннє: 20.02.19
Повідомлень: 58

2018-12-11 18:31  
Не повірила б в таку довірливість американців якби особисто не знала одну історію. Товариш чоловіка, американець, 3 роки відправляв тисячі доларів в Одесу баришні на ім'я Даша , гроші, техніка, одяг... взамін на обіцянки вийти за нього... чувака реально нічого не бентежить, зустрічаються лише в кафе-барах-готелях в Одесі, її родину не бачить.... тепер вона вимагає в нього 12тис доларів і начебто лише тоді познайомить його з батьками. Нарешті в чоловіка виникають підозри, пабам... наймає детектива - баришня заміжня вже більше 6ти років.. а чукав сидить в депресії і не розуміє як так могло вийти... Блін.. 3 роки не було сумнівів((((
oleksandr.iv 
Новенький


З нами з: 31.05.18
Востаннє: 22.01.19
Повідомлень: 1

2018-12-26 01:50  
Андрерад
Почитайте книгу Юваля Ной Харарі (професор кафедри історії Єврейського університету в Єрусалимі) російською знаю що називається "Sapiens [Краткая история человечества]", можливо українською "Людина розумна [Історія людства від минулого до майбутнього]". Так от там цікава ідея, чому "Людина Розумна" (предок Кроманьйонець) отримала шанс на майбутнє та що винищило її найближчих древніх родичів "Неандертальців"? І для вас невеликий спойлер одна із причин це Довіра між "предками", поки інша група оцінювала все по факту.
П.С. А в нас, виховували століттями покори (Рос. Імперія, СССР) і що краще мовчи і нічого не роби, нікому не вір бо здадуть, обкладуть і т.д. А теперь все це спотворене, разом з бідністю призводить до моральних деградацій. Відсутня культура.

DniproFilm 
VIP


З нами з: 10.10.18
Востаннє: 20.02.19
Повідомлень: 291

2019-01-15 15:44  
УВАГА! РЕЛІЗ ОНОВЛЕНО! (15.01.2019) Додано 6-8 серії (фінал сезону).

nataliksa 
Частий відвідувач


З нами з: 18.04.14
Востаннє: 19.02.19
Повідомлень: 40

2019-01-20 16:50  
Дуже дякую! Класний серіал,реально страшно було. В нашіх реаліях він би так щасливо не закінчився звісно ж.
Ваш часовий пояс: GMT + 2 Години

Нова тема   Відповісти