Брудний Джон (Сезон 1, серії 1-2) / Dirty John (Season 1, episodes 1-2) (2018)

Нові коментарі

Нова тема   Відповісти
Автор Повідомлення
DniproFilm 
Свій


З нами з: 10.10.18
Востаннє: 10.12.18
Повідомлень: 141

2018-11-17 16:09  
Брудний Джон (Сезон 1, серії 1-2) / Dirty John (Season 1, episodes 1-2) (2018)

Брудний Джон (Сезон 1, серії 1-2) / Dirty John (Season 1, episodes 1-2) (2018)


Жанр: Драма
Країна: США


Кінокомпанія / телеканал: Atlas Entertainment, LA Times Studios, Universal Cable Productions
Режисер: Джеффрі Рейнер
Актори/ролі озвучують: Ерик Бана, Коні Брітон, Джулія Гарнер, Джуно Темпл, Олександр Гомез, Джейк Ейбел, Ванесса Мартінез, Брент Андерсон та інші

Сюжет:
Життя Дебри цілковито змінюється, коли у неї починається роман із лікарем Джоном. Але з часом Дебра розуміє, що втрапила у зловіщу гру психологічних маніпуляцій, а її новий бойфренд - геть не той, за кого себе видає.


Тривалість: 1 серія: ~ 50 хв. (цілком серій: 8)
Перелік серій

1. Approachable Dreams
2. Red Flags and Parades
3. Remember It Was Me
4. Episode 4
5. Episode 5
6. Episode 6
7. Episode 7
8. Episode 8
Якість:
Відео:
кодек:
розмір кадру: 720x400
бітрейт: ~1800 кб/с

Аудіо # 1:
мова: українська
переклад: багатоголосий закадровий
кодек: 5.1
бітрейт: 384 кб/с

Джерело озвучення:
DniproFilm
Info

Video
ID : 0
Format : MPEG-4 Visual
Format profile : Advanced [email protected]
Format settings : BVOP2
Format settings, BVOP : 2
Format settings, QPel : No
Format settings, GMC : No warppoints
Format settings, Matrix : Default (H.263)
Muxing mode : Packed bitstream
Codec ID :
Codec ID/Hint :
Duration : 50 min 21 s
Bit rate : 1 780 kb/s
Width : 720 pixels
Height : 400 pixels
Display aspect ratio : 16:9
Frame rate : 23.976 (24000/1001) FPS
Color space : YUV
Chroma subsampling : 4:2:0
Bit depth : 8 bits
Scan type : Progressive
Compression mode : Lossy
Bits/(Pixel*Frame) : 0.258
Stream size : 641 MiB (82%)
Writing library : 67

Audio
ID : 1
Format : AC-3
Format/Info : Audio Coding 3
Commercial name : Dolby Digital
Codec ID : 2000
Duration : 50 min 21 s
Bit rate mode : Constant
Bit rate : 384 kb/s
Channel(s) : 6 channels
Channel positions : Front: L C R, Side: L R, LFE
Sampling rate : 48.0 kHz
Frame rate : 31.250 FPS (1536 SPF)
Bit depth : 16 bits
Compression mode : Lossy
Stream size : 138 MiB (18%)
Alignment : Aligned on interleaves
Interleave, duration : 42 ms (1.00 video frame)
Interleave, preload duratio : 512 ms
Service kind : Complete Main
Скріншоти


Увага, присутня відео та аудіореклама.

Додано 2 серію.


Джерело: DniproFilm


Авторський реліз (завантажувати можна без реєстрації)
 Трекер:    Зареєстрований   

Завантажити / скачати серіал українською



відео для новачків



 Зареєстрований:   2018-12-04 15:41
 Розмір:   1.48 GB 
 Оцінка серіалу:   9.7/10 (Голосів: 3)
   
Estranded 
VIP


З нами з: 09.02.14
Востаннє: 10.12.18
Повідомлень: 1234

2018-11-17 16:57  
О, у вас є телеграм канал! Я вже з вамиHappy
tsyka 
Частий відвідувач


З нами з: 12.02.16
Востаннє: 10.12.18
Повідомлень: 33

2018-11-21 14:05  
Народ, а як озвучення в Дніпрофільм?Ще не дивився фільмів з їхнім дубляжем. Але вони активно взялись за роботу )
DniproFilm 
Свій


З нами з: 10.10.18
Востаннє: 10.12.18
Повідомлень: 141

2018-12-04 15:43  
УВАГА! РЕЛІЗ ОНОВЛЕНО! (04.12.2018) Додано 2 серію.

Ліхтарник 
VIP


З нами з: 16.09.14
Востаннє: 10.12.18
Повідомлень: 1202

2018-12-05 11:48  
tsyka
гарний та й не погано підбирають голоси. Десь на рівні з "Незупиняйпродакшен"

Ваш часовий пояс: GMT + 2 Години

Нова тема   Відповісти