Брудний Джон (Сезон 1, серії 1-2) / Dirty John (Season 1, episodes 1-2) (2018) 720p Ukr/Eng

Нові коментарі

Нова тема   Відповісти
Автор Повідомлення
DniproFilm 
Свій


З нами з: 10.10.18
Востаннє: 11.12.18
Повідомлень: 147

2018-11-17 16:09  
Брудний Джон (Сезон 1, серії 1-2) / Dirty John (Season 1, episodes 1-2) (2018) Ukr/Eng

Брудний Джон (Сезон 1, серії 1-2) / Dirty John (Season 1, episodes 1-2) (2018) 720p Ukr/Eng


Жанр: Драма
Країна: США


Кінокомпанія / телеканал: Atlas Entertainment, LA Times Studios, Universal Cable Productions
Режисер: Джеффрі Рейнер
Актори/ролі озвучують: Ерик Бана, Коні Брітон, Джулія Гарнер, Джуно Темпл, Олександр Гомез, Джейк Ейбел, Ванесса Мартінез, Брент Андерсон та інші

Сюжет:
Життя Дебри цілковито змінюється, коли у неї починається роман із лікарем Джоном. Але з часом Дебра розуміє, що втрапила у зловіщу гру психологічних маніпуляцій, а її новий бойфренд - геть не той, за кого себе видає.


Тривалість: 1 серія: ~ 50 хв. (цілком серій: 8)
Перелік серій

1. Approachable Dreams
2. Red Flags and Parades
3. Remember It Was Me
4. Episode 4
5. Episode 5
6. Episode 6
7. Episode 7
8. Episode 8
Якість:
Відео:
кодек:
розмір кадру: 1280x720
бітрейт: ~4000 кб/с

Аудіо # 1:
мова: українська
переклад: багатоголосий закадровий
кодек: 5.1
бітрейт: 384 кб/с

Аудіо # 2:
мова: англійська
переклад: оригінал
кодек: 5.1
бітрейт: 640 кб/с

Джерело озвучення:
DniproFilm
Info

Video
ID : 1
Format : AVC
Format/Info : Advanced Video Codec
Format profile : [email protected]
Format settings : CABAC / 4 Ref Frames
Format settings, CABAC : Yes
Format settings, ReFrames : 4 frames
Codec ID : V_MPEG4/ISO/AVC
Duration : 50 min 21 s
Bit rate : 3 957 kb/s
Width : 1 280 pixels
Height : 720 pixels
Display aspect ratio : 16:9
Frame rate mode : Constant
Frame rate : 23.976 (24000/1001) FPS
Standard : NTSC
Color space : YUV
Chroma subsampling : 4:2:0
Bit depth : 8 bits
Scan type : Progressive
Bits/(Pixel*Frame) : 0.179
Stream size : 1.39 GiB (80%)
Language : English
Default : Yes
Forced : No
Color range : Limited
Color primaries : BT.709
Transfer characteristics : BT.709
Matrix coefficients : BT.709

Audio #1
ID : 2
Format : AC-3
Format/Info : Audio Coding 3
Commercial name : Dolby Digital
Codec ID : A_AC3
Duration : 50 min 21 s
Bit rate mode : Constant
Bit rate : 384 kb/s
Channel(s) : 6 channels
Channel positions : Front: L C R, Side: L R, LFE
Sampling rate : 48.0 kHz
Frame rate : 31.250 FPS (1536 SPF)
Bit depth : 16 bits
Compression mode : Lossy
Stream size : 138 MiB (8%)
Title : DniproFilm
Language : Ukrainian
Service kind : Complete Main
Default : Yes
Forced : No

Audio #2
ID : 3
Format : AC-3
Format/Info : Audio Coding 3
Codec ID : A_AC3
Duration : 49 min 50 s
Bit rate : 640 kb/s
Channel(s) : 6 channels
Sampling rate : 48.0 kHz
Frame rate : 31.250 FPS (1536 SPF)
Compression mode : Lossy
Stream size : 228 MiB (13%)
Language : English
Default : No
Forced : No
Скріншоти


Увага, присутня відео та аудіореклама.

Додано 2 серію.


Джерело: DniproFilm


Авторський реліз (завантажувати можна без реєстрації)
 Трекер:    Зареєстрований   

Завантажити / скачати серіал українською



відео для новачків



 Зареєстрований:   2018-12-04 15:40
 Розмір:   3.39 GB 
 Оцінка серіалу:   10/10 (Голосів: 4)
   
DniproFilm 
Свій


З нами з: 10.10.18
Востаннє: 11.12.18
Повідомлень: 147

2018-12-04 15:43  
РЕЛІЗ ОНОВЛЕНО! (04.12.2018) Додано 2 серію.

Ваш часовий пояс: GMT + 2 Години

Нова тема   Відповісти