Вклепалися / Doghouse (2009) Remux 1080p Ukr/Eng | Sub Eng

Нові коментарі

Нова тема   Відповісти
Останній раз роздавалося gsalexander (2019-05-22)
Автор Повідомлення
staf777 
Відео Гуртом - підтримка та поширення
Відео Гуртом - підтримка та поширення


З нами з: 16.11.16
Востаннє: 15.12.19
Повідомлень: 3071

2018-11-17 11:39  
Вклепалися / Doghouse (2009) Remux 1080p Ukr/Eng | Sub Eng

Вклепалися / Doghouse (2009) Remux 1080p Ukr/Eng | Sub Eng


Жанр: комедія, жахи, фантастика
Країна: Велика Британія



Кінокомпанія: Carnaby International, Carnaby Film Productions, Hanover Films
Режисер: Джейк Вест
Актори: Денні Даєр, Ноель Кларк, Еміл Марва, Лі Інглбі, Кіт Лі Касл, Христина Коул та інші

Сюжет:
Сюжет фільму оповідає про декілька людей, які подорожуючи під час канікул, натикаються на село, всі жителі якого — жінки, які вижили після того, як над їхніми будинками розпорошили експериментальні смертоносні токсини. Всі вони після цього мутували в психопаток-канібалів, одержимих ненавистю до чоловіків. Мандрівникам залишається тільки поспівчувати, оскільки швидше за все, після зустрічі з подібними істотами, живі будуть заздрити мертвим...


Тривалість: 01:28:50
Якість: 1080p
Відео:
кодек: VC-1
розмір кадру: 1920x1080
бітрейт: 12.9 Mб/с

Аудіо # 1:
мова: українська
переклад: багатоголосий закадровий
кодек: 2.0
бітрейт: 192 кб/с

Аудіо # 2:
мова: англійська
переклад: оригінал
кодек: -HRA 5.1
бітрейт: 2046 кб/с

Джерело озвучення:


Субтитри:
мова: англійська
тип: пререндерні
формат: *.pgs
Info
General
Unique ID : 31239033915689964431059001553354091516 (0x17806B492AD93B41BF2664E291B9EBFC)
Complete name : N:\Doghouse (2009) 1080p [Ukr][Eng] [Hurtom].
Format :
Format version : Version 4 / Version 2
File size : 9.39 GiB
Duration : 1 h 28 min
Overall bit rate : 15.1 Mb/s
Movie name : Doghouse (2009) 1080p [Ukr][Eng] [Hurtom]
Encoded date : UTC 2018-11-17 08:30:01
Writing application : v24.0.0 ('Beyond The Pale') 64-bit
Writing library : libebml v1.3.6 + v1.4.9
Cover : Yes
Attachments : cover.jpg

Video
ID : 1
Format : VC-1
Format profile : [email protected]
Codec ID : V_MS/VFW/FOURCC / WVC1
Codec ID/Hint : Microsoft
Duration : 1 h 28 min
Bit rate : 12.9 Mb/s
Width : 1 920 pixels
Height : 1 080 pixels
Display aspect ratio : 16:9
Frame rate mode : Constant
Frame rate : 23.976 (24000/1001) FPS
Color space : YUV
Chroma subsampling : 4:2:0
Bit depth : 8 bits
Scan type : Progressive
Compression mode : Lossy
Bits/(Pixel*Frame) : 0.259
Stream size : 7.99 GiB (85%)
Title : Doghouse.2009.1080p.BD-Remux.Rus.Eng
Default : Yes
Forced : No

Audio #1
ID : 2
Format : AC-3
Format/Info : Audio Coding 3
Codec ID : A_AC3
Duration : 1 h 28 min
Bit rate mode : Constant
Bit rate : 192 kb/s
Channel(s) : 2 channels
Channel positions : Front: L R
Sampling rate : 48.0 kHz
Frame rate : 31.250 FPS (1536 SPF)
Bit depth : 16 bits
Compression mode : Lossy
Stream size : 122 MiB (1%)
Title : [UA-MVO]
Language : Ukrainian
Service kind : Complete Main
Default : Yes
Forced : Yes

Audio #2
ID : 3
Format :
Format/Info : Digital Theater Systems
Format profile : HRA / Core
Codec ID : A_DTS
Duration : 1 h 28 min
Bit rate mode : Constant
Bit rate : 2 046 kb/s / 1 509 kb/s
Channel(s) : 6 channels
Channel positions : Front: L C R, Side: L R, LFE
Sampling rate : 48.0 kHz
Frame rate : 93.750 FPS (512 SPF)
Bit depth : 24 bits
Compression mode : Lossy
Delay relative to video : 42 ms
Stream size : 1.27 GiB (14%)
Title : Original
Language : English
Default : No
Forced : No

Text
ID : 4
Format : PGS
Muxing mode : zlib
Codec ID : S_HDMV/PGS
Codec ID/Info : Picture based subtitle format used on BDs/HD-DVDs
Duration : 1 h 24 min
Bit rate : 21.7 kb/s
Count of elements : 1724
Stream size : 13.0 MiB (0%)
Language : English
Default : No
Forced : No

Menu
00:00:00.000 : en:Chapter 01
00:08:17.788 : en:Chapter 02
00:17:13.449 : en:Chapter 03
00:22:49.201 : en:Chapter 04
00:31:20.962 : en:Chapter 05
00:37:54.271 : en:Chapter 06
00:47:29.096 : en:Chapter 07
00:51:55.821 : en:Chapter 08
00:58:13.156 : en:Chapter 09
01:05:03.357 : en:Chapter 10
01:13:08.550 : en:Chapter 11
01:25:20.323 : en:Chapter 12
Скріншоти



Подяка пану Bohdan237 за запис звуку з ТБ та пану Electroz за синхронізацію

Джерело: &
Особиста оцінка: 8 - мені сподобалося
Вклепалися / Doghouse (2009) Remux 1080p Ukr/Eng | Sub Eng Вклепалися / Doghouse (2009) Remux 1080p Ukr/Eng | Sub Eng


Золотий реліз (завантажене не впливає на рейтинг)
 Трекер:    Зареєстрований   

Завантажити / скачати фільм українською



відео для новачків



 Зареєстрований:   2018-11-17 11:39
 Розмір:   9.39 GB 
 Оцінка фільму:   8.3/10 (Голосів: 6)
   
Інші релізи
   Вклепалися / Doghouse (2009) AVC Ukr/Eng staf777  1 / 0   1.24 GB   2018-11-19 23:29 
   Вклепалися / Doghouse (2009) 720p Ukr/Eng | Sub Eng IronBee  0 / 0   4.21 GB   2017-06-16 23:01 
   Вклепалися / Попалися / Doghouse (2009) Electroz  2 / 0   1.34 GB   2017-06-11 11:18 
hetzendorf 
Попереджень: 2
Попереджень: 2 


З нами з: 23.07.15
Востаннє: 15.12.19
Повідомлень: 2596

2019-03-13 00:30  
Хоч усі ті чолов'яги ще ті недоумкуваті телепні, але я посміявся добряче ^_^ Непогана кіноха!
8/10

Ваш часовий пояс: GMT + 2 Години

Нова тема   Відповісти