Шахерезада. Нерозказані історії / Sherazade: The Untold Stories (Сезон 1) (2017) 1080p

Нові коментарі

Нова тема   Відповісти
Останній раз роздавалося imp1112 (2021-04-19)
Автор Повідомлення
sergiyko.5 
Забанено
Забанено


З нами з: 25.02.16
Востаннє: 29.10.20
Повідомлень: 3648

2018-11-17 11:53  


Шахерезада. Нерозказані історії / Sherazade: The Untold Stories (Сезон 1) (2017) 1080p

Шахерезада. Нерозказані історії / Sherazade: The Untold Stories (Сезон 1) (2017) 1080p

Жанр: пригоди, комедія
Країна: Німеччина, Австралія, Індія
Кінокомпанія: Hahn Film AG,Chocolate Liberation Front,Toonz Entertainment See more

Сюжет:
Відважна дівчина Шахерезада має допомогти своєму другові, принцу Каріму, повернутися на його законний престол. Каріма зрадив його брат і з допомогою злих замовлянь перетворив принца на синього монстра. Шахерезада та її відданий друг змушені залишити Золоте Місто, щоб знайти чарівний засіб – Дерево Життя, яке допоможе принцові знову стати людиною.

Подорож друзів пролягає через дивовижні країни й таємничі острови, де живуть джини, султани та міфічні істоти. У своїх пригодах Шахерезада і Карім зустрінуть легендарних героїв арабських казок: Аладіна, Синдбада та Алі-бабу, потоваришують із кумедним джином Халілом, який супроводжуватиме їх у цих непростих мандрах, а іноді й даватиме важливі підказки.




Тривалість: 1 серія: 23:36 (цілком серій: 26 з 26)
Якість:

Відео: кодек: розмір кадру: 1920 х 1080 бітрейт: 4200 кб/с
Аудіо: мова: українська переклад: професійний дубльований кодек: 2.0ch бітрейт: 192 кб/с [ Stereo ]
Озвучення:

Примітка: україньська доріжка записана з супутникової трансляції телеканала ПлюсПлюс і синхронізована під HD відео.
Перелік серій:
01 Перетворення / Metamorphosis
02 Незвичайний лікар / The Doctor of Doctors
03 Лампа чудес / The Lamp of Wonders
04 / The Sleeping Prince
05 / Aladin and the Princess
06 / Ali Baba and the 40 Thieves
07 / New Lamps for Old
08 / Turned to Stone
09 / I am Sinbad
10 Киць-киць, котику / Here Kitty, Kitty
11 Корабельні привиди / The Haunted Suleiman
12 Зміїний острів / Snake Island
13 Помста розбіників / The 40 Thieves' Revenge
14 Птаха і її дитя / Roc 'n' Roll
15 Внутрішній демон / The Demon Within
16 Джин із пляшки / Out of the Bottle
17 / The Ghoul Giants
18 / The Sheik of the Sea
19 / On Wak-Wak Island
20 / The Mechanical Horse
21 / The Oracle of the Ifrit
22 / Pearls in the Desert
23 Під пісню, сміх і танці / In for a Song
24 Відновити справедливість / Justice served
25 Палац могутньої сили / The Palace of the Last Power
26 Дерево життя / The Tree of Life
Про файл:
General
Unique ID : 261154656286431617496418652131677993468 (0xC4788EA8F905E7AE646B0794698079FC)
Complete name : E:\MULTFILMS\Sherazade. The Untold Stories S01 1080p \S01E01.Metamorphosis.1080p..
Format :
Format version : Version 4
File size : 741 MiB
Duration : 23 min 36 s
Overall bit rate : 4 390 kb/s
Movie name : Sherazade. The Untold Stories S01 1080p by sergiyko
Encoded date : UTC 2018-11-19 09:22:51
Writing application : v28.1.0 ('Morning Child') 64-bit
Writing library : libebml v1.3.6 + v1.4.9
Cover : Yes
Attachments : cover.jpg

Video
ID : 1
Format : AVC
Format/Info : Advanced Video Codec
Format profile : [email protected]
Format settings : CABAC / 6 Ref Frames
Format settings, CABAC : Yes
Format settings, ReFrames : 6 frames
Codec ID : V_MPEG4/ISO/AVC
Duration : 23 min 36 s
Bit rate : 4 195 kb/s
Width : 1 920 pixels
Height : 1 080 pixels
Display aspect ratio : 16:9
Frame rate mode : Constant
Frame rate : 25.000 FPS
Color space : YUV
Chroma subsampling : 4:2:0
Bit depth : 8 bits
Scan type : Progressive
Bits/(Pixel*Frame) : 0.081
Stream size : 708 MiB (96%)
Title : 01 Перетворення
Language : English
Default : Yes
Forced : No

Audio
ID : 2
Format : AC-3
Format/Info : Audio Coding 3
Commercial name : Dolby Digital
Codec ID : A_AC3
Duration : 23 min 36 s
Bit rate mode : Constant
Bit rate : 192 kb/s
Channel(s) : 2 channels
Channel layout : L R
Sampling rate : 48.0 kHz
Frame rate : 31.250 FPS (1536 SPF)
Bit depth : 16 bits
Compression mode : Lossy
Stream size : 32.4 MiB (4%)
Title : DUB 2.0ch | ПлюсПлюс
Language : Ukrainian
Service kind : Complete Main
Default : Yes
Forced : No
Скріншоти:



Запис/зведення: sergiyko


Бронзовий реліз (на рейтинг впливає 75% завантаженого)
 Трекер:    Зареєстрований   

Завантажити / скачати мультфільм українською



відео для новачків



 Зареєстрований:   2019-02-19 15:54
 Розмір:   18.67 GB 
 Оцінка мультсеріалу:   10/10 (Голосів: 7)
   
sergiyko.5 
Забанено
Забанено


З нами з: 25.02.16
Востаннє: 29.10.20
Повідомлень: 3648

2018-11-19 13:41  
Додав 2-3 серії.
Djek31 
Новенький


З нами з: 22.12.16
Востаннє: 19.04.21
Повідомлень: 19

2018-12-09 16:13  
Добрий день, коли будуть наступні серії.
sergiyko.5 
Забанено
Забанено


З нами з: 25.02.16
Востаннє: 29.10.20
Повідомлень: 3648

2018-12-12 00:08  
Додав всі серії. Після повтору будуть ововлені серії 4-9 з кращою якістю відео та звуку.
Олександрик 
Новенький


З нами з: 05.08.13
Востаннє: 17.01.21
Повідомлень: 6

2019-02-05 21:11  
Добого дня! Вже кілька днів поспіль не можу закачати цей мультик. Будь ласка станьте на роздачу.
sergiyko.5 
Забанено
Забанено


З нами з: 25.02.16
Востаннє: 29.10.20
Повідомлень: 3648

2019-02-19 15:55  
Оновлено серії 4,6-9 серії.
strannik18 
Новенький


З нами з: 19.01.13
Востаннє: 18.04.21
Повідомлень: 14

2019-05-01 16:23  
нажаль не відтворює на двд плеєрі з підтримкою файл не підтримується на пк все ок може хтось знає причину буду дуже вдячний, напевне потрібно буде переконвертувати
vishnu 
Свій


З нами з: 06.10.15
Востаннє: 19.04.21
Повідомлень: 124

2019-12-10 10:58  
А чи є ще сезони?
Ваш часовий пояс: GMT + 2 Години

Нова тема   Відповісти