P.S. Я кохаю тебе / P.S. I love You (2007) AVC 2xUkr/Eng | Sub Eng

Нові коментарі

Нова тема   Відповісти
Автор Повідомлення
staf777 
Відео Гуртом - підтримка та поширення
Відео Гуртом - підтримка та поширення


З нами з: 16.11.16
Востаннє: 20.04.19
Повідомлень: 2272

2018-11-17 10:51  
P.S. Я кохаю тебе / P.S. I love You (2007) AVC 2xUkr/Eng | Sub Eng

P.S. Я кохаю тебе / P.S. I love You (2007) AVC 2xUkr/Eng | Sub Eng

Жанр: драма, романтичний
Країна: США



Кінокомпанія: Alcon Entertainment, Grosvenor Park Productions, Wendy Finerman Productions
Режисер: Річард ЛаГравенес
Актори: Хіларі Свонк, Джерард Батлер, Ліза Кудроу, Джина Гершон, Джеймс Марстерс, Кеті Бейтс, Гаррі Коннік мол. та інші.

Сюжет:
Все життя Холлі будувалося на любові до чоловіка. Його не стало, життя зруйнувалося. Тепер щомісяця невідомо звідки, Холлі одержує листи, у яких їй даються якісь конкретні поради. Дотримуючись порад, молода жінка крок за кроком, як по сходах, піднімається з депресії.


Тривалість: 02:06:02
Якість: AVC
Відео:
кодек:
розмір кадру: 1056х596
бітрейт: 2139 кб/с

Аудіо # 1:
мова: українська
переклад: професійний дубльований
кодек: 5.1
бітрейт: 384 кб/с

Аудіо # 2: +
мова: українська
переклад: багатоголосий закадровий
кодек: 2.0
бітрейт: 192 кб/с

Аудіо # 3:
мова: англійська
переклад: оригінал
кодек: 5.1
бітрейт: 384 кб/с

Субтитри:
мова: англійська
тип: програмні (м'які)
формат: *.srt
Info
General
Unique ID : 119488102246990096434524914087797623541 (0x59E4924806F8120B714AC5AB3E4E8AF5)
Complete name : N:\Фільми AVC\Драма\P.S. I love You (2007) AVC [2xUA][ENG][Hurtom].
Format :
Format version : Version 4 / Version 2
File size : 2.73 GiB
Duration : 2 h 6 min
Overall bit rate : 3 101 kb/s
Movie name : P.S. I love You (2007) AVC [2xUA][ENG][Hurtom]
Encoded date : UTC 2018-11-18 12:26:37
Writing application : v24.0.0 ('Beyond The Pale') 64-bit
Writing library : libebml v1.3.6 + v1.4.9
Cover : Yes
Attachments : cover.png

Video
ID : 1
Format : AVC
Format/Info : Advanced Video Codec
Format profile : [email protected]
Format settings : CABAC / 11 Ref Frames
Format settings, CABAC : Yes
Format settings, ReFrames : 11 frames
Codec ID : V_MPEG4/ISO/AVC
Duration : 2 h 6 min
Bit rate : 2 139 kb/s
Width : 1 056 pixels
Height : 596 pixels
Display aspect ratio : 16:9
Frame rate mode : Constant
Frame rate : 23.976 (24000/1001) FPS
Color space : YUV
Chroma subsampling : 4:2:0
Bit depth : 8 bits
Scan type : Progressive
Bits/(Pixel*Frame) : 0.142
Stream size : 1.88 GiB (69%)
Title : P.S. I Love You
Writing library : core 128 r2216M 198a7ea
Encoding settings : cabac=1 / ref=12 / deblock=1:-3:-3 / analyse=0x3:0x133 / me=umh / subme=11 / psy=1 / psy_rd=1.03:0.00 / mixed_ref=1 / me_range=32 / chroma_me=1 / trellis=2 / 8x8dct=1 / cqm=0 / deadzone=21,11 / fast_pskip=0 / chroma_qp_offset=-2 / threads=6 / lookahead_threads=1 / sliced_threads=0 / nr=0 / decimate=0 / interlaced=0 / bluray_compat=0 / constrained_intra=0 / bframes=13 / b_pyramid=1 / b_adapt=2 / b_bias=0 / direct=3 / weightb=1 / open_gop=0 / weightp=2 / keyint=250 / keyint_min=23 / scenecut=40 / intra_refresh=0 / rc_lookahead=150 / rc=2pass / mbtree=1 / bitrate=2139 / ratetol=1.0 / qcomp=0.70 / qpmin=0 / qpmax=69 / qpstep=4 / cplxblur=20.0 / qblur=0.5 / vbv_maxrate=20000 / vbv_bufsize=25000 / nal_hrd=none / ip_ratio=1.35 / aq=1:0.80
Language : English
Default : Yes
Forced : No

Audio #1
ID : 2
Format : AC-3
Format/Info : Audio Coding 3
Codec ID : A_AC3
Duration : 2 h 6 min
Bit rate mode : Constant
Bit rate : 384 kb/s
Channel(s) : 6 channels
Channel positions : Front: L C R, Side: L R, LFE
Sampling rate : 48.0 kHz
Frame rate : 31.250 FPS (1536 SPF)
Bit depth : 16 bits
Compression mode : Lossy
Stream size : 346 MiB (12%)
Title : Дубляж (BluRay)
Language : Ukrainian
Service kind : Complete Main
Default : Yes
Forced : Yes

Audio #2
ID : 3
Format : AC-3
Format/Info : Audio Coding 3
Codec ID : A_AC3
Duration : 2 h 6 min
Bit rate mode : Constant
Bit rate : 192 kb/s
Channel(s) : 2 channels
Channel positions : Front: L R
Sampling rate : 48.0 kHz
Frame rate : 31.250 FPS (1536 SPF)
Bit depth : 16 bits
Compression mode : Lossy
Stream size : 173 MiB (6%)
Title : Багатоголосий закадровий, 1+1
Language : Ukrainian
Service kind : Complete Main
Default : No
Forced : No

Audio #3
ID : 4
Format : AC-3
Format/Info : Audio Coding 3
Codec ID : A_AC3
Duration : 2 h 6 min
Bit rate mode : Constant
Bit rate : 384 kb/s
Channel(s) : 6 channels
Channel positions : Front: L C R, Side: L R, LFE
Sampling rate : 48.0 kHz
Frame rate : 31.250 FPS (1536 SPF)
Bit depth : 16 bits
Compression mode : Lossy
Stream size : 346 MiB (12%)
Title : Original | DD 5.1 @ 384 kbps
Language : English
Service kind : Complete Main
Default : No
Forced : No

Text
ID : 5
Format : UTF-8
Codec ID : S_TEXT/UTF8
Codec ID/Info : UTF-8 Plain Text
Duration : 2 h 4 min
Bit rate : 65 b/s
Count of elements : 1710
Stream size : 59.6 KiB (0%)
Language : English
Default : No
Forced : No







Джерело: &
Особиста оцінка: 8 - мені сподобалося
P.S. Я кохаю тебе / P.S. I love You (2007) AVC 2xUkr/Eng | Sub Eng P.S. Я кохаю тебе / P.S. I love You (2007) AVC 2xUkr/Eng | Sub Eng


 Трекер:    Зареєстрований   

Завантажити / скачати фільм українською



відео для новачків



 Зареєстрований:   2018-11-18 16:17
 Розмір:   2.73 GB 
 Оцінка фільму:   7.8/10 (Голосів: 17)
   
Інші релізи
bot 
робот


З нами з: 30.09.07
Востаннє: 26.05.05
Повідомлень: 21220

2018-11-18 16:17  
Тему перенесено з Анонси релізів до форуму Фільми


staf777

roman.hotray 
Новенький


З нами з: 10.05.16
Востаннє: 19.04.19
Повідомлень: 23

2019-01-02 16:04  
Добрий та повчальний фільм про те, як людям властиво по справжньому оцінити все те що вони мають, лише після того як вони це втратять
Ваш часовий пояс: GMT + 2 Години

Нова тема   Відповісти