P.S. Я кохаю тебе / P.S. I love You (2007) 720p 2xUkr/Eng | Sub Eng

Нові коментарі

Нова тема   Відповісти
Останній раз роздавалося Danylo Shepinko (2019-05-22)
Автор Повідомлення
staf777 
Відео Гуртом - підтримка та поширення
Відео Гуртом - підтримка та поширення


З нами з: 16.11.16
Востаннє: 22.05.19
Повідомлень: 2373

2018-11-17 10:41  
P.S. Я кохаю тебе / P.S. I love You (2007) 720p 2xUkr/Eng | Sub Eng

P.S. Я кохаю тебе / P.S. I love You (2007) 720p 2xUkr/Eng | Sub Eng

Жанр: драма, романтичний
Країна: США



Кінокомпанія: Alcon Entertainment, Grosvenor Park Productions, Wendy Finerman Productions
Режисер: Річард ЛаГравенес
Актори: Хіларі Свонк, Джерард Батлер, Ліза Кудроу, Джина Гершон, Джеймс Марстерс, Кеті Бейтс, Гаррі Коннік мол. та інші.

Сюжет:
Все життя Холлі будувалося на любові до чоловіка. Його не стало, життя зруйнувалося. Тепер щомісяця невідомо звідки, Холлі одержує листи, у яких їй даються якісь конкретні поради. Дотримуючись порад, молода жінка крок за кроком, як по сходах, піднімається з депресії.


Тривалість: 02:06:02
Якість: 720p
Відео:
кодек:
розмір кадру: 1280x720
бітрейт: 6300 кб/с

Аудіо # 1:
мова: українська
переклад: професійний дубльований
кодек: 5.1
бітрейт: 384 кб/с

Аудіо # 2: +
мова: українська
переклад: багатоголосий закадровий
кодек: 2.0
бітрейт: 192 кб/с

Аудіо # 3:
мова: англійська
переклад: оригінал
кодек: 5.1
бітрейт: 1510 кб/с

Субтитри:
мова: англійська
тип: програмні (м'які)
формат: *.srt
Info
General
Unique ID : 156711218879889417661012797927038943315 (0x75E57B9FBDF68624A3A29B299FD88053)
Complete name : N:\P.S. I love You (2007) 720p [2xUKR_ENG] [Hurtom].
Format :
Format version : Version 4 / Version 2
File size : 7.38 GiB
Duration : 2 h 6 min
Overall bit rate : 8 387 kb/s
Movie name : P.S. I love You (2007) 720p [2xUKR_ENG] [Hurtom]
Encoded date : UTC 2018-11-17 10:11:07
Writing application : v24.0.0 ('Beyond The Pale') 64-bit
Writing library : libebml v1.3.6 + v1.4.9
Cover : Yes
Attachments : cover.png

Video
ID : 1
Format : AVC
Format/Info : Advanced Video Codec
Format profile : [email protected]
Format settings : CABAC / 4 Ref Frames
Format settings, CABAC : Yes
Format settings, ReFrames : 4 frames
Codec ID : V_MPEG4/ISO/AVC
Duration : 2 h 6 min
Bit rate : 6 300 kb/s
Width : 1 280 pixels
Height : 720 pixels
Display aspect ratio : 16:9
Frame rate mode : Constant
Frame rate : 23.976 FPS
Color space : YUV
Chroma subsampling : 4:2:0
Bit depth : 8 bits
Scan type : Progressive
Bits/(Pixel*Frame) : 0.285
Stream size : 5.54 GiB (75%)
Writing library : core 59 r819M 0414d78
Encoding settings : cabac=1 / ref=4 / deblock=1:-1:-1 / analyse=0x3:0x113 / me=umh / subme=7 / me-prepass=0 / brdo=1 / mixed_ref=1 / me_range=16 / chroma_me=1 / trellis=0 / 8x8dct=1 / cqm=0 / deadzone=10,6 / chroma_qp_offset=0 / threads=1 / nr=0 / decimate=0 / mbaff=0 / bframes=8 / b_pyramid=1 / b_adapt=1 / b_bias=0 / direct=1 / wpredb=1 / bime=1 / keyint=250 / keyint_min=25 / scenecut=40 / rc=2pass / bitrate=6300 / ratetol=2.0 / rceq='blurCplx^(1-qComp)' / qcomp=1.00 / qpmin=10 / qpmax=51 / qpstep=4 / cplxblur=20.0 / qblur=0.5 / vbv_maxrate=38000 / vbv_bufsize=30000 / ip_ratio=1.40 / pb_ratio=1.30 / aq=2:1.00
Default : Yes
Forced : No

Audio #1
ID : 2
Format : AC-3
Format/Info : Audio Coding 3
Codec ID : A_AC3
Duration : 2 h 6 min
Bit rate mode : Constant
Bit rate : 384 kb/s
Channel(s) : 6 channels
Channel positions : Front: L C R, Side: L R, LFE
Sampling rate : 48.0 kHz
Frame rate : 31.250 FPS (1536 SPF)
Bit depth : 16 bits
Compression mode : Lossy
Stream size : 346 MiB (5%)
Title : Дубляж (BluRay)
Language : Ukrainian
Service kind : Complete Main
Default : Yes
Forced : Yes

Audio #2
ID : 3
Format : AC-3
Format/Info : Audio Coding 3
Codec ID : A_AC3
Duration : 2 h 6 min
Bit rate mode : Constant
Bit rate : 192 kb/s
Channel(s) : 2 channels
Channel positions : Front: L R
Sampling rate : 48.0 kHz
Frame rate : 31.250 FPS (1536 SPF)
Bit depth : 16 bits
Compression mode : Lossy
Stream size : 173 MiB (2%)
Title : Багатоголосий закадровий, 1+1
Language : Ukrainian
Service kind : Complete Main
Default : No
Forced : No

Audio #3
ID : 4
Format :
Format/Info : Digital Theater Systems
Codec ID : A_DTS
Duration : 2 h 6 min
Bit rate mode : Constant
Bit rate : 1 510 kb/s
Channel(s) : 6 channels
Channel positions : Front: L C R, Side: L R, LFE
Sampling rate : 48.0 kHz
Frame rate : 93.750 FPS (512 SPF)
Bit depth : 24 bits
Compression mode : Lossy
Stream size : 1.33 GiB (18%)
Title : 5.1
Language : English
Default : No
Forced : No

Text
ID : 5
Format : UTF-8
Codec ID : S_TEXT/UTF8
Codec ID/Info : UTF-8 Plain Text
Duration : 2 h 4 min
Bit rate : 67 b/s
Count of elements : 1716
Stream size : 61.3 KiB (0%)
Language : English
Default : No
Forced : No







Джерело: &
Особиста оцінка: 8 - мені сподобалося
P.S. Я кохаю тебе / P.S. I love You (2007) 720p 2xUkr/Eng | Sub Eng P.S. Я кохаю тебе / P.S. I love You (2007) 720p 2xUkr/Eng | Sub Eng


 Трекер:    Зареєстрований   

Завантажити / скачати фільм українською



відео для новачків



 Зареєстрований:   2018-11-17 13:58
 Розмір:   7.38 GB 
 Оцінка фільму:   7.9/10 (Голосів: 7)
   
Інші релізи
bot 
робот


З нами з: 30.09.07
Востаннє: 26.05.05
Повідомлень: 21366

2018-11-17 10:52  
Тему перенесено з Фільми в HD до форуму Анонси релізів


staf777

bot 
робот


З нами з: 30.09.07
Востаннє: 26.05.05
Повідомлень: 21366

2018-11-17 13:57  
Тему перенесено з Анонси релізів до форуму Фільми в HD


staf777

Ваш часовий пояс: GMT + 2 Години

Нова тема   Відповісти