Сімейка монстрів / The Boxtrolls (2014) 1080p H.265 Ukr/Eng | Sub Ukr/Eng

Нові коментарі

Нова тема   Відповісти
Автор Повідомлення
Anonymous 







2018-11-17 00:05  
Сімейка монстрів / The Boxtrolls (2014) 1080p H.265 Ukr/Eng | Sub Ukr/Eng

Сімейка монстрів / The Boxtrolls (2014) 1080p H.265 Ukr/Eng | Sub Ukr/Eng


Жанр: анімація, пригодницький, комедія, сімейний, фентезі
Країна: США
Кінокомпанія: Laika Entertainment, Universal Pictures International
Режисер: Ґрем Енейбл / Graham Annable, Ентоні Стаччі / Anthony Stacchi
Актори: Еллі Фаннінґ / Elle Fanning, Саймон Пеґ / Simon Pegg, Тоні Коллет / Toni Collette, Айзек Гемпстед-Райт / Isaac Hempstead Wright, Бен Кінґслі / Ben Kingsley, Нік Фрост / Nick Frost, Джаред Гаріс / Jared Harris та інші

Сюжет:
Мешканці міста Чізбридж вірять, що в глибинах каналізації мешкають страшні і небезпечні монстри. З настанням сутінків вони виходять на лови і викрадають дітей та сир. Насправді ж монстри кумедні, добрі і сердечні. У цьому переконався хлопчик-сирота, якого всиновила сімейка монстрів. З такою родиною не знудишся. Пригоди починаються!

Тривалість: 01:36:09
Якість:
Відео:
кодек: H.265 (HEVC)
розмір кадру: 1920 x 1080
бітрейт: 8 876 кб/с
частота кадрів: 23.976 fps
біт піксель: 0.179 BPP (Bits Per Pixel)
бітова глибина: 10 біт
Увага! Перед завантаженням переконайтесь, що ваш пристрій відтворення (та/або ПЗ) підтримує H.265 (HEVC)

Аудіо # 1:
мова: українська
переклад: професійний дубльований
кодек: AC-3 5.1
бітрейт: 448 кб/с

Аудіо # 2:
мова: англійська
переклад: оригінал
кодек: AC-3 5.1
бітрейт: 448 кб/с

Субтитри # 1:
мова: українська (Forced),
тип: програмні (м'які)
формат: *.srt

Субтитри # 2:
мова: українська (Full),
тип: програмні (м'які)
формат: *.srt

Субтитри # 3:
мова: англійська (Full),
тип: програмні (м'які)
формат: *.srt


Info
Код:
General
Unique ID                                : 119936806264146100913683966897371479800 (0x5A3AFD18F10E2DB2E4E763227817FEF8)
Complete name                            : D:\Video\Mult\Boxtrolls (2014) 1080p H.265 [UKR_ENG].
Format                                   :
Format version                           : Version 4 / Version 2
File size                                : 6.56 GiB
Duration                                 : 1 h 36 min
Overall bit rate                         : 9 774 kb/s
Movie name                               : Boxtrolls (2014)
Encoded date                             : UTC 2018-11-16 21:57:04
Writing application                      : v20.0.0 ('I Am The Sun') 32-bit
Writing library                          : libebml v1.3.5 + v1.4.8
Cover                                    : Yes
Attachments                              : Cover.jpg

Video
ID                                       : 1
Format                                   : HEVC
Format/Info                              : High Efficiency Video Coding
Format profile                           : Main [email protected]@Main
Codec ID                                 : V_MPEGH/ISO/HEVC
Duration                                 : 1 h 36 min
Bit rate                                 : 8 875 kb/s
Width                                    : 1 920 pixels
Height                                   : 1 080 pixels
Display aspect ratio                     : 16:9
Frame rate mode                          : Constant
Frame rate                               : 23.976 (24000/1001) FPS
Color space                              : YUV
Chroma subsampling                       : 4:2:0
Bit depth                                : 10 bits
Bits/(Pixel*Frame)                       : 0.179
Stream size                              : 5.96 GiB (91%)
Title                                    : Boxtrolls (2014)
Writing library                          : x265 2.9+2-7e978ed93d60:[Windows][MSVC 1915][64 bit] 10bit
Encoding settings                        : cpuid=1049583 / frame-threads=3 / numa-pools=12 / wpp / no-pmode / no-pme / no-psnr / no-ssim / log-level=2 / input-csp=1 / input-res=1920x1080 / interlace=0 / total-frames=138335 / level-idc=0 / high-tier=1 / uhd-bd=0 / ref=5 / no-allow-non-conformance / no-repeat-headers / annexb / no-aud / no-hrd / info / hash=0 / no-temporal-layers / open-gop / min-keyint=25 / keyint=250 / gop-lookahead=0 / bframes=8 / b-adapt=2 / b-pyramid / bframe-bias=0 / rc-lookahead=40 / lookahead-slices=0 / scenecut=40 / radl=0 / no-intra-refresh / ctu=64 / min-cu-size=8 / no-rect / no-amp / max-tu-size=32 / tu-inter-depth=3 / tu-intra-depth=3 / limit-tu=4 / rdoq-level=2 / dynamic-rd=0.00 / no-ssim-rd / signhide / no-tskip / nr-intra=0 / nr-inter=0 / no-constrained-intra / no-strong-intra-smoothing / max-merge=4 / limit-refs=1 / limit-modes / me=3 / subme=5 / merange=57 / temporal-mvp / weightp / no-weightb / no-analyze-src-pics / deblock=-3:-3 / no-sao / no-sao-non-deblock / rd=4 / no-early-skip / rskip / no-fast-intra / no-tskip-fast / no-cu-lossless / no-b-intra / no-splitrd-skip / rdpenalty=0 / psy-rd=0.75 / psy-rdoq=0.75 / no-rd-refine / no-lossless / cbqpoffs=0 / crqpoffs=0 / rc=crf / crf=18.0 / qcomp=0.70 / qpstep=4 / stats-write=0 / stats-read=0 / ipratio=1.40 / pbratio=1.30 / aq-mode=3 / aq-strength=0.75 / cutree / zone-count=0 / no-strict-cbr / qg-size=64 / no-rc-grain / qpmax=69 / qpmin=5 / no-const-vbv / sar=0 / overscan=0 / videoformat=5 / range=0 / colorprim=2 / transfer=2 / colormatrix=2 / chromaloc=0 / display-window=0 / max-cll=0,0 / min-luma=0 / max-luma=1023 / log2-max-poc-lsb=8 / vui-timing-info / vui-hrd-info / slices=1 / no-opt-qp-pps / no-opt-ref-list-length-pps / no-multi-pass-opt-rps / scenecut-bias=0.05 / no-opt-cu-delta-qp / no-aq-motion / no-hdr / no-hdr-opt / no-dhdr10-opt / no-idr-recovery-sei / analysis-reuse-level=5 / scale-factor=0 / refine-intra=0 / refine-inter=0 / refine-mv=0 / no-limit-sao / ctu-info=0 / no-lowpass-dct / refine-mv-type=0 / copy-pic=1 / max-ausize-factor=1.0 / no-dynamic-refine / no-single-sei
Default                                  : Yes
Forced                                   : No

Audio #1
ID                                       : 2
Format                                   : AC-3
Format/Info                              : Audio Coding 3
Codec ID                                 : A_AC3
Duration                                 : 1 h 36 min
Bit rate mode                            : Constant
Bit rate                                 : 448 kb/s
Channel(s)                               : 6 channels
Channel positions                        : Front: L C R, Side: L R, LFE
Sampling rate                            : 48.0 kHz
Frame rate                               : 31.250 FPS (1536 SPF)
Bit depth                                : 16 bits
Compression mode                         : Lossy
Stream size                              : 308 MiB (5%)
Title                                    : 6ch 48kHz 448Kbps | Blu-Ray
Language                                 : Ukrainian
Service kind                             : Complete Main
Default                                  : Yes
Forced                                   : Yes

Audio #2
ID                                       : 3
Format                                   : AC-3
Format/Info                              : Audio Coding 3
Codec ID                                 : A_AC3
Duration                                 : 1 h 36 min
Bit rate mode                            : Constant
Bit rate                                 : 448 kb/s
Channel(s)                               : 6 channels
Channel positions                        : Front: L C R, Side: L R, LFE
Sampling rate                            : 48.0 kHz
Frame rate                               : 31.250 FPS (1536 SPF)
Bit depth                                : 16 bits
Compression mode                         : Lossy
Stream size                              : 308 MiB (5%)
Title                                    : 6ch 48kHz 448Kbps | Original
Language                                 : English
Service kind                             : Complete Main
Default                                  : No
Forced                                   : No

Text #1
ID                                       : 4
Format                                   : UTF-8
Codec ID                                 : S_TEXT/UTF8
Codec ID/Info                            : UTF-8 Plain Text
Duration                                 : 1 h 25 min
Bit rate                                 : 1 b/s
Count of elements                        : 33
Stream size                              : 1.07 KiB (0%)
Title                                    : Forced
Language                                 : Ukrainian
Default                                  : Yes
Forced                                   : Yes

Text #2
ID                                       : 5
Format                                   : UTF-8
Codec ID                                 : S_TEXT/UTF8
Codec ID/Info                            : UTF-8 Plain Text
Duration                                 : 1 h 30 min
Bit rate                                 : 78 b/s
Count of elements                        : 1210
Stream size                              : 52.4 KiB (0%)
Title                                    : Full
Language                                 : Ukrainian
Default                                  : No
Forced                                   : No

Text #3
ID                                       : 6
Format                                   : UTF-8
Codec ID                                 : S_TEXT/UTF8
Codec ID/Info                            : UTF-8 Plain Text
Duration                                 : 1 h 30 min
Bit rate                                 : 46 b/s
Count of elements                        : 1250
Stream size                              : 31.1 KiB (0%)
Title                                    : Full
Language                                 : English
Default                                  : No
Forced                                   : No

Menu
00:00:00.000                             : :00:00:00.000
00:05:52.143                             : :00:05:52.143
00:11:53.296                             : :00:11:53.296
00:15:21.337                             : :00:15:21.337
00:20:22.805                             : :00:20:22.805
00:27:08.502                             : :00:27:08.502
00:32:25.944                             : :00:32:25.944
00:36:26.518                             : :00:36:26.518
00:41:45.920                             : :00:41:45.920
00:45:45.284                             : :00:45:45.284
00:51:57.281                             : :00:51:57.281
00:56:00.107                             : :00:56:00.107
01:02:03.887                             : :01:02:03.887
01:07:26.209                             : :01:07:26.209
01:11:27.867                             : :01:11:27.867
01:16:27.875                             : :01:16:27.875
01:22:05.671                             : :01:22:05.671
01:25:30.375                             : :01:25:30.375
01:27:33.248                             : :01:27:33.248
01:30:00.687                             : :01:30:00.687
Світлини




Джерело:
Особиста оцінка: 0 - не дивився


>>> Усі мої релізи <<<



 Трекер:    Зареєстрований   

Завантажити / скачати мультфільм українською



відео для новачків



 Зареєстрований:   2018-11-17 00:05
 Розмір:   6.56 GB 
 Оцінка мультфільму:   10/10 (Голосів: 4)
   
Electroz 
Відео Гуртом - підтримка та поширення
Відео Гуртом - підтримка та поширення


З нами з: 18.09.14
Востаннє: 22.02.20
Повідомлень: 3773

2018-11-17 00:52  
Для чого робити текст по центрі? Важко читати параметри відео...
Anonymous 







2018-11-17 01:00  
Electroz
Роблю новий макет. Подумаю, що можна зробити, щоб читалося легше!

omm 
Відео Гуртом - фільмокрай
Відео Гуртом - фільмокрай


З нами з: 12.06.12
Востаннє: 22.02.20
Повідомлень: 2348

2018-11-17 12:03  
Свого часу дуже сподобався мультфільм. Легкий, приємний, смішний.
Хоч це й не найкраща з робіт студії Лаїка, але переглянути варто.
8 з 10

Ваш часовий пояс: GMT + 2 Години

Нова тема   Відповісти