Копи на підхваті [Розширена версія] / The Other Guys [Unrated Version] (2010) 1080p H.265 Ukr/Eng | Sub Eng

Нові коментарі

Нова тема   Відповісти
Автор Повідомлення
Anonymous 







2018-11-17 00:43  
Копи на підхваті [Розширена версія] / The Other Guys [Unrated Version] (2010) 1080p H.265 Ukr/Eng | Sub Eng

Копи на підхваті [Розширена версія] / The Other Guys [Unrated Version] (2010) 1080p H.265 Ukr/Eng | Sub Eng


Жанр: екшн, комедія, кримінальний
Країна: США
Режисер: Адам МакКей
Актори: Марк Волберґ, Самуель Л. Джексон, Ліндсі Слоан, Вілл Феррелл, Двейн Джонсон, Єва Мендез, Майкл Кітон, Рей Стівенсон, Стів Куґан

Сюжет:
Дансон та Хайсміт - двоє найкрутіших копів Нью-Йорку. Вони ледь не щодня отримують нагороди, ганяються за злочинцями в кращому стилі бойовиків та є ідолами усіх поліцейських. А поруч з ними працює інша парочка - Гембл та Хойц, нікудишні полісмени на найнижчих посадах, які займаються дрібними правопорушеннями та перекладанням папірців. Та кожен заслуговує на свої 15 хвилин слави - і одна, на перший погляд дрібна справа розкручується в цілий бойовик.

Тривалість: 01:56:14
Якість:
Відео:
кодек: H.265 (HEVC)
розмір кадру: 1920 x 800
бітрейт: 4 990 кб/с
частота кадрів: 23.976 fps
біт піксель: 0.135 BPP (Bits Per Pixel)
бітова глибина: 10 біт
Увага! Перед завантаженням переконайтесь, що ваш пристрій відтворення (та/або ПЗ) підтримує H.265 (HEVC)

Аудіо # 1:
мова: українська
переклад: професійний дубльований
кодек: AC-3 5.1
бітрейт: 384 кб/с

Аудіо # 2:
мова: англійська
переклад: оригінал
кодек: AC-3 5.1
бітрейт: 448 кб/с

Субтитри # 1:
мова: українська (Forced (На місця без перекладу)),
тип: програмні (м'які)
формат: *.srt

Субтитри # 2:
мова: англійська (Full),
тип: програмні (м'які)
формат: *.srt


Info
Код:
General
Unique ID                                : 267617717286175184482734809266478597595 (0xC9554C2B62855F4780EE79F7266745DB)
Complete name                            : D:\Video\The Other Guys [Unrated Version] (2010) 1080p H.265 [UKR_ENG].
Format                                   :
Format version                           : Version 4 / Version 2
File size                                : 4.73 GiB
Duration                                 : 1 h 59 min
Overall bit rate                         : 5 645 kb/s
Movie name                               : The Other Guys [Unrated Version] (2010)
Encoded date                             : UTC 2018-11-15 22:18:54
Writing application                      : v20.0.0 ('I Am The Sun') 32-bit
Writing library                          : libebml v1.3.5 + v1.4.8
Cover                                    : Yes
Attachments                              : Cover.jpg

Video
ID                                       : 1
Format                                   : HEVC
Format/Info                              : High Efficiency Video Coding
Format profile                           : Main [email protected]@Main
Codec ID                                 : V_MPEGH/ISO/HEVC
Duration                                 : 1 h 56 min
Bit rate                                 : 4 990 kb/s
Width                                    : 1 920 pixels
Height                                   : 800 pixels
Display aspect ratio                     : 2.40:1
Frame rate mode                          : Constant
Frame rate                               : 23.976 (24000/1001) FPS
Color space                              : YUV
Chroma subsampling                       : 4:2:0
Bit depth                                : 10 bits
Bits/(Pixel*Frame)                       : 0.135
Stream size                              : 4.05 GiB (86%)
Title                                    : The Other Guys [Unrated Version] (2010)
Writing library                          : x265 2.7+1-2aa737a99f51:[Windows][GCC 7.3.0][64 bit] 10bit
Encoding settings                        : cpuid=1173503 / frame-threads=3 / numa-pools=12 / wpp / no-pmode / no-pme / no-psnr / ssim / log-level=2 / input-csp=1 / input-res=1920x800 / interlace=0 / total-frames=167232 / level-idc=0 / high-tier=1 / uhd-bd=0 / ref=3 / no-allow-non-conformance / no-repeat-headers / annexb / no-aud / no-hrd / info / hash=0 / no-temporal-layers / open-gop / min-keyint=23 / keyint=250 / gop-lookahead=0 / bframes=8 / b-adapt=2 / b-pyramid / bframe-bias=0 / rc-lookahead=50 / lookahead-slices=5 / scenecut=40 / radl=0 / no-intra-refresh / ctu=64 / min-cu-size=8 / no-rect / no-amp / max-tu-size=32 / tu-inter-depth=1 / tu-intra-depth=1 / limit-tu=0 / rdoq-level=2 / dynamic-rd=0.00 / no-ssim-rd / signhide / no-tskip / nr-intra=0 / nr-inter=0 / no-constrained-intra / no-strong-intra-smoothing / max-merge=3 / limit-refs=3 / no-limit-modes / me=3 / subme=3 / merange=57 / temporal-mvp / weightp / no-weightb / no-analyze-src-pics / deblock=0:0 / sao / no-sao-non-deblock / rd=3 / no-early-skip / no-rskip / no-fast-intra / no-tskip-fast / no-cu-lossless / no-b-intra / no-splitrd-skip / rdpenalty=0 / psy-rd=1.50 / psy-rdoq=1.00 / no-rd-refine / no-lossless / cbqpoffs=0 / crqpoffs=0 / rc=crf / crf=19.0 / qcomp=0.60 / qpstep=4 / stats-write=0 / stats-read=0 / ipratio=1.40 / pbratio=1.30 / aq-mode=3 / aq-strength=1.00 / cutree / zone-count=0 / no-strict-cbr / qg-size=32 / no-rc-grain / qpmax=69 / qpmin=0 / no-const-vbv / sar=0 / overscan=0 / videoformat=5 / range=0 / colorprim=2 / transfer=2 / colormatrix=2 / chromaloc=0 / display-window=0 / max-cll=0,0 / min-luma=0 / max-luma=1023 / log2-max-poc-lsb=8 / vui-timing-info / vui-hrd-info / slices=1 / no-opt-qp-pps / no-opt-ref-list-length-pps / no-multi-pass-opt-rps / scenecut-bias=0.05 / no-opt-cu-delta-qp / no-aq-motion / no-hdr / no-hdr-opt / no-dhdr10-opt / analysis-reuse-level=5 / scale-factor=0 / refine-intra=0 / refine-inter=0 / refine-mv=0 / no-limit-sao / ctu-info=0 / no-lowpass-dct / refine-mv-type=0 / copy-pic=1
Default                                  : Yes
Forced                                   : No

Audio #1
ID                                       : 2
Format                                   : AC-3
Format/Info                              : Audio Coding 3
Codec ID                                 : A_AC3
Duration                                 : 1 h 56 min
Bit rate mode                            : Constant
Bit rate                                 : 384 kb/s
Channel(s)                               : 6 channels
Channel positions                        : Front: L C R, Side: L R, LFE
Sampling rate                            : 48.0 kHz
Frame rate                               : 31.250 FPS (1536 SPF)
Bit depth                                : 16 bits
Compression mode                         : Lossy
Stream size                              : 319 MiB (7%)
Title                                    : ПД - Blu-Ray
Language                                 : Ukrainian
Service kind                             : Complete Main
Default                                  : Yes
Forced                                   : Yes

Audio #2
ID                                       : 3
Format                                   : AC-3
Format/Info                              : Audio Coding 3
Codec ID                                 : A_AC3
Duration                                 : 1 h 56 min
Bit rate mode                            : Constant
Bit rate                                 : 448 kb/s
Channel(s)                               : 6 channels
Channel positions                        : Front: L C R, Side: L R, LFE
Sampling rate                            : 48.0 kHz
Frame rate                               : 31.250 FPS (1536 SPF)
Bit depth                                : 16 bits
Compression mode                         : Lossy
Stream size                              : 372 MiB (8%)
Title                                    : Original
Language                                 : English
Service kind                             : Complete Main
Default                                  : No
Forced                                   : No

Text #1
ID                                       : 4
Format                                   : UTF-8
Codec ID                                 : S_TEXT/UTF8
Codec ID/Info                            : UTF-8 Plain Text
Duration                                 : 1 h 41 min
Bit rate                                 : 17 b/s
Count of elements                        : 191
Stream size                              : 13.1 KiB (0%)
Title                                    : Forced (На місця без перекладу)
Language                                 : Ukrainian
Default                                  : Yes
Forced                                   : Yes

Text #2
ID                                       : 5
Format                                   : UTF-8
Codec ID                                 : S_TEXT/UTF8
Codec ID/Info                            : UTF-8 Plain Text
Duration                                 : 1 h 55 min
Bit rate                                 : 97 b/s
Count of elements                        : 1969
Stream size                              : 82.8 KiB (0%)
Title                                    : Full
Language                                 : English
Default                                  : No
Forced                                   : No

Menu
00:00:00.000                             : en:00:00:00.000
00:09:15.805                             : en:00:09:15.805
00:13:23.011                             : en:00:13:23.011
00:19:10.066                             : en:00:19:10.066
00:26:17.659                             : en:00:26:17.659
00:31:20.253                             : en:00:31:20.253
00:36:32.232                             : en:00:36:32.232
00:42:51.235                             : en:00:42:51.235
00:50:15.971                             : en:00:50:15.971
00:57:32.282                             : en:00:57:32.282
01:03:22.090                             : en:01:03:22.090
01:14:31.008                             : en:01:14:31.008
01:22:22.062                             : en:01:22:22.062
01:29:38.832                             : en:01:29:38.832
01:36:21.984                             : en:01:36:21.984
01:42:41.989                             : en:01:42:41.989
Світлини




Джерело:
Особиста оцінка: 0 - не дивився


>>> Усі мої релізи <<<



 Трекер:    Зареєстрований   

Завантажити / скачати фільм українською



відео для новачків



 Зареєстрований:   2018-11-17 00:43
 Розмір:   4.73 GB 
 Оцінка фільму:   10/10 (Голосів: 4)
   
umka1m 
Частий відвідувач


З нами з: 06.03.15
Востаннє: 24.09.20
Повідомлень: 35

2019-01-24 10:13  
Цитата:
бітрейт: 384 кб/с

на дискі звук був 640

Ваш часовий пояс: GMT + 2 Години

Нова тема   Відповісти