Реальна сталь / Real Steel (2011) 1080p H.265 Ukr/Eng | Sub Ukr/Eng

Нові коментарі

Нова тема   Відповісти
Автор Повідомлення
Anonymous 







2018-11-16 22:59  
Реальна сталь / Real Steel (2011) 1080p H.265 Ukr/Eng | Sub Ukr/Eng

Реальна сталь / Real Steel (2011) 1080p H.265 Ukr/Eng | Sub Ukr/Eng


Жанр: фантастика, бойовик, сімейний
Країна: США, Індія
Кінокомпанія: Touchstone Pictures, DreamWorks SKG, 21 Laps Entertainment
Режисер: Шон Леві (Shawn Levy)
Актори: Г'ю Джекман (Hugh Jackman), Дакота Ґойо (Dakota Goyo), Еванджелін Ліллі (Evangeline Lilly), Кевін Дюранд (Kevin Durand), Ентоні Макі (Anthony Mackie), Джеймс Реборн (James Rebhorn), Гоуп Девіс (Hope Davis), Ольга Фонда (Olga Fonda)

Сюжет:
Після заборони боксу людей на рингу змінили керовані роботи. Чарлі Кент, в минулому відомий боксер і без п’яти хвилин чемпіон, в нових умовах не домігся успіху. Його механічні підопічні зазнавали на рингу поразку за поразкою і Чарлі втратив гроші і заліз у борги. Шанс все змінити приходить, коли герой фільму разом зі своїм сином Максом відправляється на звалище і серед купи непотребу знаходить викинутого робота, що має непоганий потенціал.

Тривалість: 02:06:50
Якість:
Відео:
кодек: H.265 (HEVC)
розмір кадру: 1920 x 816
бітрейт: 4 963 кб/с
частота кадрів: 23.976 fps
біт піксель: 0.132 BPP (Bits Per Pixel)
бітова глибина: 10 біт
Увага! Перед завантаженням переконайтесь, що ваш пристрій відтворення (та/або ПЗ) підтримує H.265 (HEVC)

Аудіо # 1:
мова: українська
переклад: професійний дубльований
кодек: AC-3 5.1
бітрейт: 640 кб/с

Аудіо # 2:
мова: англійська
переклад: оригінал
кодек: 5.1
бітрейт: 511 кб/с

Субтитри # 1:
мова: українська (Forced),
тип: програмні (м'які)
формат: *.srt

Субтитри # 2:
мова: українська (Full),
тип: програмні (м'які)
формат: *.srt

Субтитри # 3:
мова: англійська (Full),
тип: програмні (м'які)
формат: *.srt


Info
Код:
General
Unique ID                                : 55711145971574583609827529915469527019 (0x29E99390AC2E3446215D03C945D5F7EB)
Complete name                            : G:\Video\Films\Real Steel (2011) 1080p H.265 [UKR_ENG].
Format                                   :
Format version                           : Version 4 / Version 2
File size                                : 5.42 GiB
Duration                                 : 2 h 6 min
Overall bit rate                         : 6 117 kb/s
Movie name                               : Real Steel (2011)
Encoded date                             : UTC 2018-11-14 19:57:32
Writing application                      : v20.0.0 ('I Am The Sun') 32-bit
Writing library                          : libebml v1.3.5 + v1.4.8
Cover                                    : Yes
Attachments                              : Cover.jpg

Video
ID                                       : 1
Format                                   : HEVC
Format/Info                              : High Efficiency Video Coding
Format profile                           : Main [email protected]@Main
Codec ID                                 : V_MPEGH/ISO/HEVC
Duration                                 : 2 h 6 min
Bit rate                                 : 4 963 kb/s
Width                                    : 1 920 pixels
Height                                   : 816 pixels
Display aspect ratio                     : 2.35:1
Frame rate mode                          : Constant
Frame rate                               : 23.976 (24000/1001) FPS
Color space                              : YUV
Chroma subsampling                       : 4:2:0
Bit depth                                : 10 bits
Bits/(Pixel*Frame)                       : 0.132
Stream size                              : 4.40 GiB (81%)
Title                                    : Real Steel  (2011)
Writing library                          : x265 2.8+57-eea92165b035:[Windows][GCC 7.3.0][64 bit] 10bit
Encoding settings                        : cpuid=1111039 / frame-threads=3 / numa-pools=12 / wpp / no-pmode / no-pme / no-psnr / ssim / log-level=2 / input-csp=1 / input-res=1920x816 / interlace=0 / total-frames=182472 / level-idc=0 / high-tier=1 / uhd-bd=0 / ref=3 / no-allow-non-conformance / no-repeat-headers / annexb / no-aud / no-hrd / info / hash=0 / no-temporal-layers / open-gop / min-keyint=23 / keyint=250 / gop-lookahead=0 / bframes=8 / b-adapt=2 / b-pyramid / bframe-bias=0 / rc-lookahead=50 / lookahead-slices=5 / scenecut=40 / radl=0 / no-intra-refresh / ctu=64 / min-cu-size=8 / no-rect / no-amp / max-tu-size=32 / tu-inter-depth=1 / tu-intra-depth=1 / limit-tu=0 / rdoq-level=0 / dynamic-rd=0.00 / no-ssim-rd / signhide / no-tskip / nr-intra=0 / nr-inter=0 / no-constrained-intra / no-strong-intra-smoothing / max-merge=3 / limit-refs=3 / no-limit-modes / me=3 / subme=5 / merange=57 / temporal-mvp / weightp / no-weightb / no-analyze-src-pics / deblock=0:0 / sao / no-sao-non-deblock / rd=3 / no-early-skip / no-rskip / no-fast-intra / no-tskip-fast / no-cu-lossless / no-b-intra / no-splitrd-skip / rdpenalty=0 / psy-rd=2.00 / psy-rdoq=0.00 / no-rd-refine / no-lossless / cbqpoffs=0 / crqpoffs=0 / rc=crf / crf=18.0 / qcomp=0.60 / qpstep=4 / stats-write=0 / stats-read=0 / ipratio=1.40 / pbratio=1.30 / aq-mode=3 / aq-strength=1.00 / cutree / zone-count=0 / no-strict-cbr / qg-size=32 / no-rc-grain / qpmax=69 / qpmin=0 / no-const-vbv / sar=0 / overscan=0 / videoformat=5 / range=0 / colorprim=2 / transfer=2 / colormatrix=2 / chromaloc=0 / display-window=0 / max-cll=0,0 / min-luma=0 / max-luma=1023 / log2-max-poc-lsb=8 / vui-timing-info / vui-hrd-info / slices=1 / no-opt-qp-pps / no-opt-ref-list-length-pps / no-multi-pass-opt-rps / scenecut-bias=0.05 / no-opt-cu-delta-qp / no-aq-motion / no-hdr / no-hdr-opt / no-dhdr10-opt / no-idr-recovery-sei / analysis-reuse-level=5 / scale-factor=0 / refine-intra=0 / refine-inter=0 / refine-mv=0 / no-limit-sao / ctu-info=0 / no-lowpass-dct / refine-mv-type=0 / copy-pic=1 / max-ausize-factor=1.0 / no-dynamic-refine / no-single-sei
Default                                  : Yes
Forced                                   : No

Audio #1
ID                                       : 2
Format                                   : AC-3
Format/Info                              : Audio Coding 3
Codec ID                                 : A_AC3
Duration                                 : 2 h 6 min
Bit rate mode                            : Constant
Bit rate                                 : 640 kb/s
Channel(s)                               : 6 channels
Channel positions                        : Front: L C R, Side: L R, LFE
Sampling rate                            : 48.0 kHz
Frame rate                               : 31.250 FPS (1536 SPF)
Bit depth                                : 16 bits
Compression mode                         : Lossy
Delay relative to video                  : 300 ms
Stream size                              : 581 MiB (10%)
Title                                    : ПД - 5.1 640 kbps
Language                                 : Ukrainian
Service kind                             : Complete Main
Default                                  : Yes
Forced                                   : Yes

Audio #2
ID                                       : 3
Format                                   :
Format/Info                              : Advanced Audio Codec
Format profile                           : LC
Codec ID                                 : A_AAC-2
Duration                                 : 2 h 6 min
Bit rate                                 : 511 kb/s
Channel(s)                               : 6 channels
Channel positions                        : Front: L C R, Side: L R, LFE
Sampling rate                            : 48.0 kHz
Frame rate                               : 46.875 FPS (1024 SPF)
Compression mode                         : Lossy
Stream size                              : 464 MiB (8%)
Title                                    : Original
Language                                 : English
Default                                  : No
Forced                                   : Yes

Text #1
ID                                       : 4
Format                                   : UTF-8
Codec ID                                 : S_TEXT/UTF8
Codec ID/Info                            : UTF-8 Plain Text
Duration                                 : 1 h 28 min
Bit rate                                 : 0 b/s
Count of elements                        : 14
Stream size                              : 504 Bytes (0%)
Title                                    : Forced
Language                                 : Ukrainian
Default                                  : Yes
Forced                                   : Yes

Text #2
ID                                       : 5
Format                                   : UTF-8
Codec ID                                 : S_TEXT/UTF8
Codec ID/Info                            : UTF-8 Plain Text
Duration                                 : 1 h 59 min
Bit rate                                 : 96 b/s
Count of elements                        : 1502
Stream size                              : 85.1 KiB (0%)
Title                                    : Full
Language                                 : Ukrainian
Default                                  : No
Forced                                   : No

Text #3
ID                                       : 6
Format                                   : UTF-8
Codec ID                                 : S_TEXT/UTF8
Codec ID/Info                            : UTF-8 Plain Text
Duration                                 : 1 h 57 min
Bit rate                                 : 67 b/s
Count of elements                        : 1661
Stream size                              : 58.3 KiB (0%)
Title                                    : Full
Language                                 : English
Default                                  : No
Forced                                   : No

Menu
00:00:00.000                             : en:Opening Titles
00:03:00.472                             : en:Charlie Kenton
00:10:38.304                             : en:Wheeling & dealing
00:18:50.546                             : en:Noisy Boy Has Arrived
00:24:29.885                             : en:Crash Palace
00:34:14.761                             : en:Metal Valley
00:41:22.355                             : en:Atom
00:48:46.131                             : en:He Was Beautiful
00:52:08.709                             : en:The Champ Is Here
00:57:15.015                             : en:The Zoo
01:05:01.231                             : en:Training Atom
01:12:33.974                             : en:Climbing The Ranks
01:18:26.994                             : en:Twin Cities
01:26:28.517                             : en:Fight For Me
01:32:50.773                             : en:Go Get Him, Charlie
01:39:19.704                             : en:The Mighty Zeus
01:48:22.663                             : en:Toe-To-Toe
01:52:26.865                             : en:Final Round
01:57:21.868                             : en:People's Champion
02:00:50.326                             : en:End Credits
Світлини




Джерело:
Особиста оцінка: 0 - не дивився


>>> Усі мої релізи <<<



 Трекер:    Зареєстрований   

Завантажити / скачати фільм українською



відео для новачків



 Зареєстрований:   2018-11-16 22:59
 Розмір:   5.42 GB 
 Оцінка фільму:   9.6/10 (Голосів: 7)
   
Інші релізи
   Реальна сталь / Real Steel (2011) 720p-mini [60fps] Drool  1 / 0   5.52 GB   2014-08-12 16:26 
   Реальна сталь / Real Steel (2011) DVD9 Eng/Rus/Ukr | Ліцензія Beffis  1 / 0   6.82 GB   2012-04-28 14:47 
   Реальна сталь / Real Steel (2011) 720p Ukr | Sub Ukr/Eng Zeus62  7 / 0   4.3 GB   2012-02-02 11:58 
   Реальна сталь / Real Steel (2011) Ukr/Eng | Sub Ukr/Eng hellforces  2 / 1   2.52 GB   2012-02-01 12:49 
   Реальна сталь / Real Steel (2011) 1080p Ukr/Eng | Sub Ukr/Eng ratbol  4 / 0   13.92 GB   2012-01-31 16:19 
   Реальна сталь / Real Steel (2011) Jatx_11  6 / 0   1.62 GB   2012-01-31 12:14 
   Реальна сталь / Real Steel (2011) AVC seroga13  6 / 0   2.57 GB   2012-01-31 10:34 
   Реальна сталь / Real Steel (2011) 720p Ukr/Eng | Sub Ukr/Eng Hurtomivets'  1 / 0   7.66 GB   2012-01-31 09:44 
Ваш часовий пояс: GMT + 2 Години

Нова тема   Відповісти