Жовтневе небо / October Sky (1999) 720p Ukr/Eng | Sub Eng

Нові коментарі

Нова тема   Відповісти
Автор Повідомлення
Anonymous 







2018-11-16 19:27  
Жовтневе небо / October Sky (1999) 720p Ukr/Eng | Sub Eng

Жовтневе небо / October Sky (1999) 720p Ukr/Eng | Sub Eng
Оригінальний постер:

Жовтневе небо / October Sky (1999) 720p Ukr/Eng | Sub Eng


Жанр: драма, сімейний, біографічний
Країна: США



Кінокомпанія: Universal Pictures
Режисер: Джо Джонстон / Joe Johnston
Актори: Джейк Джилленгол / Jake Gyllenhaal, Лора Дерн / Laura Dern, Кріс Купер / Chris Cooper, Кріс Овен / Chris Owen, Вільям Лі Скотт / William Lee Scott , Чад Ліндберг / Chad Lindberg, Наталі Кенердей / Natalie Canerday, Скотт Томас / Scott Thomas, Ренді Стріплінг / Randy Stripling, Кріс Елліс / Chris Ellis та інші.

Сюжет:
У жовтні 1957 року відбулася подія епохального значення. Радянський Союз вперше в історії людства запустив на земну орбіту перший «Супутник». Світ став іншим.

Запуск радянської ракети справив незабутнє враження на хлопчика на ім'я Гомер Гіккам з невеликого шахтарського містечка Колвуд в Західній Вірджинії. Всерйоз «хворий» космосом, Гомер вирішує побудувати власну ракету. У цьому йому починають допомагати троє друзів і шкільна вчителька. Однак батько Гомера, шахтар - роботяга, що бачить сина тільки в ролі продовжувача своєї нелегкої справи, категорично проти прагнення своєї дитини.

Але, незважаючи ні на що, хлопчик зробить все можливе і неможливе, щоб його мрія стала дійсністю...

*Засновано на реальній історії Гомера Гіккама.


Рейтинг MPAA: PG - рекомендується присутність батьків
Вікова категорія: 6+

Тривалість: 01:47:28
Якість: 720p
Відео:
кодек:
розмір кадру: 1280x544
бітрейт: 4425 кб/с

Аудіо # 1:
мова: українська
переклад: двоголосий закадровий | студія "Зранку до ночі"
кодек: 2.0
бітрейт: 192 кб/с

Аудіо # 2:
мова: англійська
переклад: оригінал
кодек: 5.1
бітрейт: 448 кб/с

Субтитри:
мова: англійська (SDH)
тип: програмні (м'які)
формат: *.srt

Збережено оригінальні розділи, як на Blu-ray
Info
Код:
Complete name               : October Sky (1999) [Ukr,Eng sub.Eng] 720p [Hurtom].
Format                      :
Format version              : Version 4
File size                   : 3.80 GiB
Duration                    : 1 h 47 min
Overall bit rate            : 5 067 kb/s
Movie name                  : Жовтневе небо / October Sky (1999) [Ukr,Eng sub.Eng] 720p [Hurtom]
Released date               : 1999
Encoded date                : UTC 2018-11-16 18:01:51
Writing application         : v28.2.0 ('The Awakening') 64-bit
Writing library             : libebml v1.3.6 + v1.4.9
Cover                       : Yes
Comment                     : https://www.imdb.com/title/tt0132477/
Attachments                 : cover.jpg
DIRECTOR                    : Джо Джонстон / Joe Johnston
GENRE                       : драма, сімейний, біографічний
SYNOPSIS                    : У жовтні 1957 року відбулася подія епохального значення. Радянський Союз вперше в історії людства запустив на земну орбіту перший «Супутник». Світ став іншим. /  / Запуск радянської ракети справив незабутнє враження на хлопчика на ім'я Гомер Гіккам з невеликого шахтарського містечка Колвуд в Західній Вірджинії. Всерйоз «хворий» космосом, Гомер вирішує побудувати власну ракету. У цьому йому починають допомагати троє друзів і шкільна вчителька. Однак батько Гомера, шахтар - роботяга, що бачить сина тільки в ролі продовжувача своєї нелегкої справи, категорично проти прагнення своєї дитини. /  / Але, незважаючи ні на що, хлопчик зробить все можливе і неможливе, щоб його мрія стала дійсністю... /  / *Засновано на реальній історії Гомера Гіккама...
Url                         : https://toloka.to/t96488

Video
ID                          : 1
Format                      : AVC
Format/Info                 : Advanced Video Codec
Format profile              : [email protected]
Format settings             : CABAC / 9 Ref Frames
Format settings, CABAC      : Yes
Format settings, ReFrames   : 9 frames
Codec ID                    : V_MPEG4/ISO/AVC
Duration                    : 1 h 47 min
Bit rate                    : 4 425 kb/s
Width                       : 1 280 pixels
Height                      : 544 pixels
Display aspect ratio        : 2.35:1
Frame rate mode             : Constant
Frame rate                  : 23.976 (24000/1001) FPS
Color space                 : YUV
Chroma subsampling          : 4:2:0
Bit depth                   : 8 bits
Scan type                   : Progressive
Bits/(Pixel*Frame)          : 0.265
Stream size                 : 3.32 GiB (87%)
Title                       : Жовтневе небо / October Sky (1999) 720p [msltel]
Writing library             : core 146 r2538 121396c
Encoding settings           : cabac=1 / ref=9 / deblock=1:-3:-3 / analyse=0x3:0x113 / me=umh / subme=9 / psy=1 / psy_rd=1.00:0.15 / mixed_ref=1 / me_range=32 / chroma_me=1 / trellis=1 / 8x8dct=1 / cqm=0 / deadzone=21,11 / fast_pskip=0 / chroma_qp_offset=-3 / threads=6 / lookahead_threads=1 / sliced_threads=0 / nr=0 / decimate=1 / interlaced=0 / bluray_compat=0 / constrained_intra=0 / bframes=14 / b_pyramid=2 / b_adapt=2 / b_bias=0 / direct=1 / weightb=0 / open_gop=0 / weightp=2 / keyint=230 / keyint_min=23 / scenecut=40 / intra_refresh=0 / rc_lookahead=40 / rc=crf / mbtree=0 / crf=18.4 / qcomp=0.60 / qpmin=0 / qpmax=69 / qpstep=4 / vbv_maxrate=50000 / vbv_bufsize=62500 / crf_max=0.0 / nal_hrd=none / filler=0 / ip_ratio=1.40 / pb_ratio=1.30 / aq=1:1.00
Language                    : English
Default                     : Yes
Forced                      : No

Audio #1
ID                          : 2
Format                      : AC-3
Format/Info                 : Audio Coding 3
Commercial name             : Dolby Digital
Codec ID                    : A_AC3
Duration                    : 1 h 47 min
Bit rate mode               : Constant
Bit rate                    : 192 kb/s
Channel(s)                  : 2 channels
Channel layout              : L R
Sampling rate               : 48.0 kHz
Frame rate                  : 31.250 FPS (1536 SPF)
Bit depth                   : 16 bits
Compression mode            : Lossy
Stream size                 : 147 MiB (4%)
Title                       : MVO [Volya Cine+] 2.0 192 Kbps
Language                    : Ukrainian
Service kind                : Complete Main
Default                     : Yes
Forced                      : Yes

Audio #2
ID                          : 3
Format                      : AC-3
Format/Info                 : Audio Coding 3
Commercial name             : Dolby Digital
Codec ID                    : A_AC3
Duration                    : 1 h 47 min
Bit rate mode               : Constant
Bit rate                    : 448 kb/s
Channel(s)                  : 6 channels
Channel layout              : L R C LFE Ls Rs
Sampling rate               : 48.0 kHz
Frame rate                  : 31.250 FPS (1536 SPF)
Bit depth                   : 16 bits
Compression mode            : Lossy
Stream size                 : 344 MiB (9%)
Title                       : Original, 5.1 448 Kbps
Language                    : English
Service kind                : Complete Main
Default                     : No
Forced                      : No

Text
ID                          : 4
Format                      : UTF-8
Codec ID                    : S_TEXT/UTF8
Codec ID/Info               : UTF-8 Plain Text
Duration                    : 1 h 44 min
Bit rate                    : 62 b/s
Count of elements           : 1485
Stream size                 : 48.2 KiB (0%)
Title                       : Eng SDH
Language                    : English
Default                     : No
Forced                      : No

Menu
00:00:00.000                : :Chapter 01
00:02:29.566                : :Chapter 02
00:09:05.544                : :Chapter 03
00:17:48.859                : :Chapter 04
00:25:19.684                : :Chapter 05
00:34:35.198                : :Chapter 06
00:38:10.663                : :Chapter 07
00:41:12.511                : :Chapter 08
00:46:21.695                : :Chapter 09
00:53:14.900                : :Chapter 10
00:54:42.529                : :Chapter 11
01:07:16.407                : :Chapter 12
01:12:30.637                : :Chapter 13
01:21:26.965                : :Chapter 14
01:25:32.961                : :Chapter 15
01:29:20.271                : :Chapter 16
01:35:14.500                : :Chapter 17
01:39:58.659                : :Chapter 18
01:47:28.733                : :Chapter 19


Джерело: &
Подяка Sando7 та drop_plz за українську доріжку.


Срібний реліз (на рейтинг впливає 50% завантаженого)
 Трекер:    Зареєстрований   

Завантажити / скачати фільм українською



відео для новачків



 Зареєстрований:   2018-11-16 20:53
 Розмір:   3.8 GB 
 Оцінка фільму:   9.6/10 (Голосів: 11)
   
Інші релізи
   Жовтневе небо / October Sky (1999) Ukr/Eng drop_plz  2 / 1   2.03 GB   2018-11-16 09:00 
Форкуш 
VIP


З нами з: 03.02.10
Востаннє: 13.11.19
Повідомлень: 2512

2018-12-03 13:21  
Гарний, мрійливий і підлітково-повчальний 8/10
dimon-2018 
VIP


З нами з: 06.05.18
Востаннє: 13.11.19
Повідомлень: 415

2019-03-29 11:17  
Anonymous
український постер

дяк 
Свій


З нами з: 30.10.10
Востаннє: 10.11.19
Повідомлень: 79

2019-06-13 21:04  
Дякую вам за реліз, колись не знаходив цей фільм на толоці з українським дубляжем!
hetzendorf 
Забанено
Забанено


З нами з: 23.07.15
Востаннє: 02.11.19
Повідомлень: 2572

2019-10-14 23:11  
Не те, щоби супер, але вирішив відкласти до колекції. Правильні речі пропагує й робити спонукає. Те, що треба для молоді. І акцент тут не на захопленні й гонитві за новомодними технологіями, а на усвідомленні свого місця у житті, свого шляху та відповідальності за долю себе й своїх близьких.
8/10

Ваш часовий пояс: GMT + 2 Години

Нова тема   Відповісти