My Little Pony: Дружба - це диво / My Little Pony: Friendship is Magic (Сезон 8) (2018) AVC

Нові коментарі

Нова тема   Відповісти
Автор Повідомлення
sergiyko.5 
VIP


З нами з: 25.02.16
Востаннє: 12.08.20
Повідомлень: 3325

2018-11-16 19:00  


My Little Pony: Дружба - це диво / My Little Pony: Friendship is Magic (Сезон 8) (2018) AVC

My Little Pony: Дружба - це диво / My Little Pony: Friendship is Magic (Сезон 8) (2018) AVC

Жанр: фентезі, пригоди, комедія, сімейний
Країна: DHX Media, Studio B Productions, Hasbro Studios
Режисер: Лорен Фауст, Джейсон Тіссен, Джеймс Вуттон, Джим Міллер, Денні Лу, Тім Стабі
Ролі озвучують: Тара Стронґ, Ешлі Болл, Андреа Лібман, Табіта Сен Жермен, Кеті Візлак, Ніколь Олівер

Сюжет:
У країні Еквестрія, у казковому місті Понівіль, у мирі та гармонії живуть Твайлайт та її подруги. Мешкають там не тільки поні, але й пегаси, єдинороги і, навіть, алінкорни – єдинороги з крилами, що володіють неймовірною магічною силою. Усі вони – частина величезного світу, яким вони ж і правлять. Магія, чудеса та неймовірні пригоди відбуваються тут на кожному кроці і наші допитливі друзі завжди поспішають з'ясувати, що ж сталося.




Тривалість: 1 серія: 21:07 (цілком серій: 26 з 26)
Якість:

Відео: кодек: розмір кадру: 1024 х 576 бітрейт: ~1200 кб/с
Аудіо: мова: українська переклад: професійний дубльований кодек: 2.0 бітрейт: 192 кб/с | Stereo |
Озвучення:
Перелік серій:
01 Шкільна бентега. Частина перша / School Daze. Part 1
02 Шкільна бентега. Частина друга / School Daze. Part 2
03 Пара для Мод/ The Maud Couple
04 Удавай поки це стане реальністю / Fake It 'Til You Make It
05 Бабуся відривається / Grannies Gone Wild
06 На суші і на морі / Surf and-or Turf
07 Коняча вистава / Horse Play
08 Карта батьків / The Parent Map
09 Незавершений пункт / Non-Compete Clause
10 Нерозривні стосунки / The Break Up Breakdown
11 Линяння / Molt Down
12 Нагорода за досягнення / Marks for Effort
13 Злі двійники / The Mean 6
14 Директорське питання / A Matter of Principals
15 Свято вогнища / The Hearth's Warming Club
16 Університет дружби / Friendship University
17 Кінець дружбі / The End in Friend
18 Музика Якіті / Yakity-Sax
19 Шлях до дружби / Road to Friendship
20 Вошаути / The Washouts
21 Рокхуф у сучасному світі / A Rockhoof and a Hard Place
22 Що ховається внизу / What Lies Beneath
23 Обітниця мовчання / Sounds of Silence
24 Тато знає краще / Father Knows Beast
25 Знищення школи. Частина перша / School Raze. Part 1
26 Знищення школи. Частина друга / School Raze. Part 2
Про файл:
General
Unique ID : 177755251897375916740315931170984145109 (0x85BA6A8EB67D2549BB4193C4D48BB0D5)
Complete name : E:\MULTFILMS\My Little Pony. Friendship Is Magic S08 \S08E01.School Daze.Part 1..
Format :
Format version : Version 2
File size : 238 MiB
Duration : 22 min 5 s
Overall bit rate : 1 505 kb/s
Encoded date : UTC 2018-12-07 22:46:31
Writing application : v7.8.0 ('River Man') 32bit built on Apr 3 2015 12:11:22
Writing library : libebml v1.3.1 + v1.4.2

Video
ID : 1
Format : AVC
Format/Info : Advanced Video Codec
Format profile : [email protected]
Format settings : CABAC / 7 Ref Frames
Format settings, CABAC : Yes
Format settings, ReFrames : 7 frames
Codec ID : V_MPEG4/ISO/AVC
Duration : 22 min 5 s
Bit rate : 1 283 kb/s
Width : 1 024 pixels
Height : 576 pixels
Display aspect ratio : 16:9
Frame rate mode : Constant
Frame rate : 23.976 (24000/1001) FPS
Color space : YUV
Chroma subsampling : 4:2:0
Bit depth : 8 bits
Scan type : Progressive
Bits/(Pixel*Frame) : 0.091
Stream size : 203 MiB (85%)
Writing library : core 152 r2851 ba24899
Encoding settings : cabac=1 / ref=7 / deblock=1:0:0 / analyse=0x3:0x133 / me=umh / subme=9 / psy=1 / psy_rd=0.40:0.00 / mixed_ref=1 / me_range=24 / chroma_me=1 / trellis=2 / 8x8dct=1 / cqm=0 / deadzone=21,11 / fast_pskip=1 / chroma_qp_offset=-2 / threads=18 / lookahead_threads=2 / sliced_threads=0 / nr=0 / decimate=1 / interlaced=0 / bluray_compat=0 / constrained_intra=0 / bframes=5 / b_pyramid=2 / b_adapt=2 / b_bias=0 / direct=3 / weightb=1 / open_gop=0 / weightp=2 / keyint=250 / keyint_min=23 / scenecut=40 / intra_refresh=0 / rc_lookahead=60 / rc=crf / mbtree=1 / crf=19.0 / qcomp=0.70 / qpmin=0 / qpmax=69 / qpstep=4 / ip_ratio=1.40 / aq=1:0.60
Default : Yes
Forced : No

Audio
ID : 2
Format : AC-3
Format/Info : Audio Coding 3
Commercial name : Dolby Digital
Codec ID : A_AC3
Duration : 22 min 5 s
Bit rate mode : Constant
Bit rate : 192 kb/s
Channel(s) : 2 channels
Channel layout : L R
Sampling rate : 48.0 kHz
Frame rate : 31.250 FPS (1536 SPF)
Bit depth : 16 bits
Compression mode : Lossy
Stream size : 30.3 MiB (13%)
Service kind : Complete Main
Default : Yes
Forced : No
Скріншоти:



Запис/зведення: sergiyko


Бронзовий реліз (на рейтинг впливає 75% завантаженого)
 Трекер:    Зареєстрований   

Завантажити / скачати мультфільм українською



відео для новачків



 Зареєстрований:   2018-12-17 16:25
 Розмір:   5.19 GB 
 Оцінка мультсеріалу:   10/10 (Голосів: 12)
   
sergiyko.5 
VIP


З нами з: 25.02.16
Востаннє: 12.08.20
Повідомлень: 3325

2018-11-24 15:44  
Додав 17-23 серії.
velesius 
Новенький


З нами з: 31.10.09
Востаннє: 11.08.20
Повідомлень: 16

2018-11-24 16:39  
а перші 8 серій плануються?
sergiyko.5 
VIP


З нами з: 25.02.16
Востаннє: 12.08.20
Повідомлень: 3325

2018-11-24 19:16  
velesius написано:
а перші 8 серій плануються?

Звичайно, як отримаю записи, зразу поділюсь.

velesius 
Новенький


З нами з: 31.10.09
Востаннє: 11.08.20
Повідомлень: 16

2018-11-24 22:29  
Чудово, дякую! Донька дуже чекає)
sergiyko.5 
VIP


З нами з: 25.02.16
Востаннє: 12.08.20
Повідомлень: 3325

2018-12-09 12:08  
Додав серії до повного сезону. Торент буде оновлено ще раз, буде замінено файли 10-16, в яких поки що звук моно.
odin_doma2 
Свій


З нами з: 22.07.08
Востаннє: 11.08.20
Повідомлень: 68

2018-12-09 22:13  
sergiyko.5
Дякую! Сідую.

sergiyko.5 
VIP


З нами з: 25.02.16
Востаннє: 12.08.20
Повідомлень: 3325

2018-12-17 16:27  
Оновлено серії 10-17, замінено на кращу якість відео та стерео доріжку в аудіо.
Ваш часовий пояс: GMT + 2 Години

Нова тема   Відповісти