22 милі / Mile 22 (2018) Remux 1080p Ukr/Eng | Sub Eng

Нові коментарі

Нова тема   Відповісти
Автор Повідомлення
kryk-v.ya. 
VIP


З нами з: 14.02.14
Востаннє: 23.05.19
Повідомлень: 1213

2018-11-15 22:43  
22 милі / Mile 22 (2018) Remux 1080p Ukr/Eng | Sub Eng

22 милі / Mile 22 (2018) Remux 1080p Ukr/Eng | Sub Eng


Жанр: бойовик, трилер
Країна: США



Кінокомпанія: Film 44
Режисер: Пітер Берґ
Актори: Марк Волберґ, Лорен Коен, Ронда Роузі, Джон Малковіч, Іко Увайс, Пітер Берґ, Пурна Джаґаннатан, Сала Бейкер, Террі Кінні, Сем Медіна та інші

Сюжет:
У центрі сюжету – Джеймс Сільва. Він агент спеціального загону, для якого не існує задач, які вони не могли б виконати. Їх називають Привиди, бо жодні документи не фіксують їхнього існування. Привидів залучають там, де усі відомі методи не спрацювали. У Індонезії влада погрузла у корупції та злочинності. Місцевий поліцейський має беззаперечні докази порушень закону високопосадовцями. Цінного свідка потрібно якнайшвидше вивезти з країни, аби він міг дати свідчення. Лічені милі до аеропорту, звідки злітатиме секретний борт з цінним пасажиром, стануть найважчим шляхом, який доводилося здолати Джеймсу Сільві.


Тривалість: 01:34:39
Якість: Remux 1080p
Відео:
кодек:
розмір кадру: 1920 х 1080
бітрейт: 29,6 Мб/с

Аудіо # 1:
мова: українська
переклад: професійний дубльований | AAA-Sound
кодек: 2.0 [stereo]
бітрейт: 192 кб/с

Аудіо # 2:
мова: англійська
переклад: оригінал
кодек: True-HD 5.1
бітрейт: 3524 кб/с

Субтитри:
мова: англійська
тип: пререндерні | (forced)
формат: *.pgs

Субтитри:
мова: англійська
тип: пререндерні | (full)
формат: *.pgs

Збережено основні розділи.

Шухляда
Unique ID : 329720340392020934507041079376145632920 (0xF80DD3E31018AB733D2399D1298D4E98)
Complete name : E:\Mile 22 (2018) Remux 1080p.
Format :
Format version : Version 4 / Version 2
File size : 22.1 GiB
Duration : 1 h 34 min
Overall bit rate mode : Variable
Overall bit rate : 33.4 Mb/s
Encoded date : UTC 2018-11-15 17:59:06
Writing application : v25.0.0 ('Prog Noir') 64-bit
Writing library : libebml v1.3.6 + v1.4.9
Cover : Yes
Attachments : cover1.jpg

Video
ID : 1
Format : AVC
Format/Info : Advanced Video Codec
Format profile : [email protected]
Format settings : CABAC / 4 Ref Frames
Format settings, CABAC : Yes
Format settings, ReFrames : 4 frames
Codec ID : V_MPEG4/ISO/AVC
Duration : 1 h 34 min
Bit rate mode : Variable
Bit rate : 29.6 Mb/s
Maximum bit rate : 35.0 Mb/s
Width : 1 920 pixels
Height : 1 080 pixels
Display aspect ratio : 16:9
Frame rate mode : Constant
Frame rate : 23.976 (24000/1001) FPS
Standard : NTSC
Color space : YUV
Chroma subsampling : 4:2:0
Bit depth : 8 bits
Scan type : Progressive
Bits/(Pixel*Frame) : 0.596
Stream size : 19.6 GiB (89%)
Default : Yes
Forced : No
Color range : Limited
Color primaries : BT.709
Transfer characteristics : BT.709
Matrix coefficients : BT.709

Audio #1
ID : 2
Format : AC-3
Format/Info : Audio Coding 3
Commercial name : Dolby Digital
Codec ID : A_AC3
Duration : 1 h 34 min
Bit rate mode : Constant
Bit rate : 192 kb/s
Channel(s) : 2 channels
Channel layout : L R
Sampling rate : 48.0 kHz
Frame rate : 31.250 FPS (1536 SPF)
Bit depth : 16 bits
Compression mode : Lossy
Stream size : 130 MiB (1%)
Title : DUB-(AAA-Sound)
Language : Ukrainian
Service kind : Complete Main
Default : Yes
Forced : No

Audio #2
ID : 3
Format : MLP FBA
Commercial name : TrueHD
Codec ID : A_TRUEHD
Duration : 1 h 34 min
Bit rate mode : Variable
Bit rate : 3 524 kb/s
Maximum bit rate : 5 142 kb/s
Channel(s) : 6 channels
Channel layout : L R C LFE Ls Rs
Sampling rate : 48.0 kHz
Frame rate : 1 200.000 FPS (40 SPF)
Compression mode : Lossless
Stream size : 2.33 GiB (11%)
Title : Оригінал
Language : English
Default : No
Forced : No

Text #1
ID : 4
Format : PGS
Muxing mode : zlib
Codec ID : S_HDMV/PGS
Codec ID/Info : Picture based subtitle format used on BDs/HD-DVDs
Duration : 1 h 26 min
Bit rate : 34.9 kb/s
Count of elements : 3168
Stream size : 21.7 MiB (0%)
Title : full
Language : English
Default : Yes
Forced : No

Text #2
ID : 5
Format : PGS
Muxing mode : zlib
Codec ID : S_HDMV/PGS
Codec ID/Info : Picture based subtitle format used on BDs/HD-DVDs
Duration : 1 h 11 min
Bit rate : 725 b/s
Count of elements : 84
Stream size : 380 KiB (0%)
Title : forced
Language : English
Default : No
Forced : No

Menu
00:00:00.000 : en:00:00:00.000 / en:Глава 01
00:12:06.225 : en:00:12:06.225
00:24:27.923 : en:00:24:27.923
00:36:23.139 : en:00:36:23.139
00:48:42.210 : en:00:48:42.210
01:04:11.264 : en:01:04:11.264
01:17:49.663 : en:01:17:49.663
01:27:14.604 : en:01:27:14.604
Знимки




Джерело: &
Особиста оцінка: 10 - без зайвих вагань рекомендую всім!

Велика подяка пану Electroz'у за синхронізацію.


Золотий реліз (завантажене не впливає на рейтинг)
 Трекер:    Зареєстрований   

Завантажити / скачати фільм українською



відео для новачків



 Зареєстрований:   2018-11-15 22:43
 Розмір:   22.1 GB 
 Оцінка фільму:   8.8/10 (Голосів: 25)
   
Інші релізи
   22 милі / Mile 22 (2018) 1080p Ukr/Eng | Sub Eng staf777  10 / 0   11.12 GB   2019-01-30 13:16 
   22 милі / Mile 22 (2018) AVC Ukr/Eng | Sub Eng 11FrYkT  27 / 4   1.7 GB   2018-11-22 20:50 
   22 милі / Mile 22 (2018) uafilm.tv  10 / 0   1.29 GB   2018-11-20 23:41 
   22 милі / Mile 22 (2018) 1080p H.265 Ukr/Eng | Sub Eng -Star-Lord-  10 / 2   4.05 GB   2018-11-20 22:33 
   22 милі / Mile 22 (2018) 720p Ukr/Eng | Sub Eng радик  31 / 0   2.45 GB   2018-10-24 10:17 
Siegfried 
VIP


З нами з: 01.11.11
Востаннє: 22.05.19
Повідомлень: 261

2018-11-15 23:03  
Щось нічого не завантажується...
Тепер пішло, але з перервами...
Rolleyes (2)

kryk-v.ya. 
VIP


З нами з: 14.02.14
Востаннє: 23.05.19
Повідомлень: 1213

2018-11-17 20:05  
панове, що така активність скачувань слабенька...звук-ліцензія, відео-бомба, сюжет просто клас...я сьогодні вже третій раз передивився.
Wowatorrent 
Поважний учасник


З нами з: 24.03.16
Востаннє: 23.05.19
Повідомлень: 164

2018-11-20 17:09  
Чого інші релізи не оновлюються?
comixyar 
Новенький


З нами з: 07.03.12
Востаннє: 22.05.19
Повідомлень: 6

2019-05-01 00:33  
Непоганий бойовичок мені сподобався.
Ваш часовий пояс: GMT + 2 Години

Нова тема   Відповісти