Озброєні та небезпечні [Розширена версія] / The Heat [Unrated Cut] (2013) AVC Ukr/Eng | Sub Ukr/Eng

Нові коментарі

Нова тема   Відповісти
Автор Повідомлення
staf777 
Відео Гуртом - підтримка та поширення
Відео Гуртом - підтримка та поширення


З нами з: 16.11.16
Востаннє: 23.04.19
Повідомлень: 2285

2018-11-15 16:48  
Озброєні та небезпечні [Розширена версія] / The Heat [Unrated Cut] (2013) AVC Ukr/Eng | Sub Ukr/Eng

Озброєні та небезпечні [Розширена версія] / The Heat [Unrated Cut] (2013) AVC Ukr/Eng | Sub Ukr/Eng


Жанр: комедія, кримінальний, бойовик, детектив
Країна: США


Рейтинг MPAA: R - особам до 17 років обов'язкова присутність батьків або дорослого опікуна
Вікова категорія: 16+
Кінокомпанія: Twentieth Century Fox Film Corporation, Chernin Entertainment, Dune Entertainment
Режисер: Пол Файг / Paul Feig
Актори: Сандра Буллок /Sandra Bullock, Мелісса МакКарті / Melissa McCarthy, Деміан Бішир / Demián Bichir, Марлон Вайанс / Marlon Wayans, Майкл Рапапорт / Michael Rapaport, Джейн Куртін / Jane Curtin, Спокен Ризонс / Spoken Reasons та інші.

Сюжет:
Агентові ФБР і Бостонського поліцейського довірено відповідальне завдання: вийти на слід і знешкодити небезпечного злочинця. І це навіть добре, що копи - жінки, адже бандит-то - росіянин. А непередбачуваній російській кмітливості можна протиставити тільки настільки ж непередбачувану жіночу логіку.


Тривалість: 02:00:20
Якість: AVC
Відео:
кодек:
розмір кадру: 1024x426
бітрейт: 1826 кб/с

Аудіо # 1:
мова: українська
переклад: професійний дубльований
кодек: 5.1
бітрейт: 448 кб/с

Аудіо # 2:
мова: англійська
переклад: оригінал
кодек: 5.1
бітрейт: 384 кб/с

Джерело озвучення:


Субтитри:
мова: українська
тип: програмні (м'які)
формат: *.srt

Субтитри:
мова: англійська
тип: програмні (м'які)
формат: *.srt
Info
General
Unique ID : 137359898172538635013923123022705863292 (0x67568DD9D0B603CAADF51708FD522A7C)
Complete name : N:\ The Heat [Unrated Cut] (2013) AVC [UA][ENG][Hurtom].
Format :
Format version : Version 4 / Version 2
File size : 2.24 GiB
Duration : 2 h 0 min
Overall bit rate : 2 660 kb/s
Movie name : The Heat [Unrated Cut] (2013) AVC [UA][ENG][Hurtom]
Encoded date : UTC 2018-11-16 17:12:17
Writing application : v24.0.0 ('Beyond The Pale') 64-bit
Writing library : libebml v1.3.6 + v1.4.9
Attachments : poster.jpg

Video
ID : 1
Format : AVC
Format/Info : Advanced Video Codec
Format profile : [email protected]
Format settings : CABAC / 12 Ref Frames
Format settings, CABAC : Yes
Format settings, ReFrames : 12 frames
Codec ID : V_MPEG4/ISO/AVC
Duration : 2 h 0 min
Bit rate : 1 826 kb/s
Width : 1 024 pixels
Height : 426 pixels
Display aspect ratio : 2.40:1
Frame rate mode : Constant
Frame rate : 23.976 (24000/1001) FPS
Color space : YUV
Chroma subsampling : 4:2:0
Bit depth : 8 bits
Scan type : Progressive
Bits/(Pixel*Frame) : 0.175
Stream size : 1.53 GiB (69%)
Writing library : core 133 r2334 a3ac64b
Encoding settings : cabac=1 / ref=12 / deblock=1:-3:-3 / analyse=0x3:0x113 / me=umh / subme=10 / psy=1 / psy_rd=1.00:0.25 / mixed_ref=0 / me_range=32 / chroma_me=1 / trellis=2 / 8x8dct=1 / cqm=0 / deadzone=21,11 / fast_pskip=1 / chroma_qp_offset=-4 / threads=12 / lookahead_threads=2 / sliced_threads=0 / nr=0 / decimate=0 / interlaced=0 / bluray_compat=0 / constrained_intra=0 / bframes=7 / b_pyramid=2 / b_adapt=2 / b_bias=0 / direct=3 / weightb=1 / open_gop=0 / weightp=2 / keyint=240 / keyint_min=23 / scenecut=40 / intra_refresh=0 / rc_lookahead=40 / rc=2pass / mbtree=1 / bitrate=1826 / ratetol=1.0 / qcomp=0.70 / qpmin=0 / qpmax=69 / qpstep=4 / cplxblur=20.0 / qblur=0.5 / vbv_maxrate=62500 / vbv_bufsize=78125 / nal_hrd=none / ip_ratio=1.40 / aq=1:1.00
Language : English
Default : No
Forced : No

Audio #1
ID : 2
Format : AC-3
Format/Info : Audio Coding 3
Codec ID : A_AC3
Duration : 2 h 0 min
Bit rate mode : Constant
Bit rate : 448 kb/s
Channel(s) : 6 channels
Channel positions : Front: L C R, Side: L R, LFE
Sampling rate : 48.0 kHz
Frame rate : 31.250 FPS (1536 SPF)
Bit depth : 16 bits
Compression mode : Lossy
Stream size : 385 MiB (17%)
Title : Dub, Blu-ray
Language : Ukrainian
Service kind : Complete Main
Default : Yes
Forced : Yes

Audio #2
ID : 3
Format : AC-3
Format/Info : Audio Coding 3
Codec ID : A_AC3
Duration : 2 h 0 min
Bit rate mode : Constant
Bit rate : 384 kb/s
Channel(s) : 6 channels
Channel positions : Front: L C R, Side: L R, LFE
Sampling rate : 48.0 kHz
Frame rate : 31.250 FPS (1536 SPF)
Bit depth : 16 bits
Compression mode : Lossy
Stream size : 331 MiB (14%)
Title : .384Kbps (6ch) English
Language : English
Service kind : Complete Main
Default : No
Forced : No

Text #1
ID : 4
Format : UTF-8
Codec ID : S_TEXT/UTF8
Codec ID/Info : UTF-8 Plain Text
Duration : 1 h 54 min
Bit rate : 154 b/s
Count of elements : 2220
Stream size : 129 KiB (0%)
Language : Ukrainian
Default : No
Forced : No

Text #2
ID : 5
Format : UTF-8
Codec ID : S_TEXT/UTF8
Codec ID/Info : UTF-8 Plain Text
Duration : 1 h 59 min
Bit rate : 99 b/s
Count of elements : 2640
Stream size : 86.6 KiB (0%)
Title : English (Full)
Language : English
Default : No
Forced : No

Text #3
ID : 6
Format : UTF-8
Codec ID : S_TEXT/UTF8
Codec ID/Info : UTF-8 Plain Text
Duration : 1 h 59 min
Bit rate : 103 b/s
Count of elements : 2728
Stream size : 90.1 KiB (0%)
Title : English (SDH)
Language : English
Default : No
Forced : No

Text #4
ID : 7
Format : UTF-8
Codec ID : S_TEXT/UTF8
Codec ID/Info : UTF-8 Plain Text
Duration : 1 h 59 min
Bit rate : 113 b/s
Count of elements : 2728
Stream size : 98.8 KiB (0%)
Title : English (SDH-Colored)
Language : English
Default : No
Forced : No

Menu
00:00:00.000 : en:Chapter 00
00:01:46.022 : en:Chapter 01
00:05:28.453 : en:Chapter 02
00:07:15.977 : en:Chapter 03
00:11:26.435 : en:Chapter 04
00:14:17.898 : en:Chapter 05
00:16:38.956 : en:Chapter 06
00:19:50.939 : en:Chapter 07
00:23:23.610 : en:Chapter 08
00:26:18.118 : en:Chapter 09
00:30:11.976 : en:Chapter 10
00:34:07.837 : en:Chapter 11
00:36:27.101 : en:Chapter 12
00:39:12.975 : en:Chapter 13
00:44:44.139 : en:Chapter 14
00:47:59.584 : en:Chapter 15
00:52:59.801 : en:Chapter 16
00:56:13.786 : en:Chapter 17
01:00:57.778 : en:Chapter 18
01:03:25.801 : en:Chapter 19
01:05:47.151 : en:Chapter 20
01:09:34.795 : en:Chapter 21
01:17:00.574 : en:Chapter 22
01:23:38.638 : en:Chapter 23
01:26:51.622 : en:Chapter 24
01:28:37.019 : en:Chapter 25
01:31:07.420 : en:Chapter 26
01:34:08.559 : en:Chapter 27
01:37:03.233 : en:Chapter 28
01:39:41.225 : en:Chapter 29
01:44:20.670 : en:Chapter 30
01:45:41.501 : en:Chapter 31
01:48:54.569 : en:Chapter 32
01:51:15.710 : en:Chapter 33
01:54:02.710 : en:Chapter 34
01:55:24.876 : en:Chapter 35








Джерело: &
Особиста оцінка: 8 - мені сподобалося
Озброєні та небезпечні [Розширена версія] / The Heat [Unrated Cut] (2013) AVC Ukr/Eng | Sub Ukr/Eng Озброєні та небезпечні [Розширена версія] / The Heat [Unrated Cut] (2013) AVC Ukr/Eng | Sub Ukr/Eng


 Трекер:    Зареєстрований   

Завантажити / скачати фільм українською



відео для новачків



 Зареєстрований:   2018-11-16 21:33
 Розмір:   2.24 GB 
 Оцінка фільму:   8.6/10 (Голосів: 11)
   
Інші релізи
   Озброєні та небезпечні [Розширена версія] / The Heat [Unrated Cut] (2013) 1080p Ukr/Eng | Sub Ukr/Eng staf777  2 / 0   11.92 GB   2018-11-15 16:39 
   Озброєні та небезпечні [Театральна версія] / The Heat (2013) [Theatrical Cut] 1080p Ukr/Eng | Sub Ukr/Eng seroga13  0 / 0   7.55 GB   2013-11-17 12:50 
   Озброєні та небезпечні [Театральна версія] / The Heat (2013) [Theatrical Cut] Ukr/Eng AngryBirdsUA  2 / 0   2.18 GB   2013-11-02 00:03 
   Озброєні та небезпечні [Розширена версія] / The Heat [Extended Cut] (2013) patriot2305  13 / 0   1.45 GB   2013-10-31 21:09 
   Озброєні і небезпечні [Розширена версія] / The Heat [Extended Version] (2013) Ukr/Eng | Sub Ukr/Eng НТН  3 / 0   2.18 GB   2013-10-31 16:15 
   Озброєні та небезпечні [Театральна версія] / The Heat [Theatrical Cut] (2013) 720p Ukr/Eng | Sub Ukr/Eng igor911  2 / 0   4.37 GB   2013-10-30 23:55 
   Озброєні та небезпечні [Розширена версія] / The Heat [Unrated Cut] (2013) 720p Ukr/Eng | Sub Ukr/Eng igor911  3 / 0   4.37 GB   2013-10-30 22:48 
   Озброєні та небезпечні [Театральна версія] / The Heat [Theatrical Cut] (2013) AVC patriot2305  2 / 0   2.03 GB   2013-10-30 20:26 
bot 
робот


З нами з: 30.09.07
Востаннє: 26.05.05
Повідомлень: 21238

2018-11-16 21:33  
Тему перенесено з Анонси релізів до форуму Фільми


staf777

perepadia 
VIP


З нами з: 27.10.08
Востаннє: 23.04.19
Повідомлень: 282

2018-11-17 09:58  
"Агентові ФБР і Бостонського поліцейського"

Аґентціі ФБР і бостонській поліціянтці

Ваш часовий пояс: GMT + 2 Години

Нова тема   Відповісти