Елвін і бурундуки / Alvin and the Chipmunks (Сезон 3, 44 серій з 52) (2017) 1080p

Нові коментарі

Нова тема   Відповісти
Останній раз роздавалося oles-dzyga (2021-01-17)
Автор Повідомлення
sergiyko.5 
Забанено
Забанено


З нами з: 25.02.16
Востаннє: 29.10.20
Повідомлень: 3648

2018-11-15 14:36  


Елвін і бурундуки / Alvin and the Chipmunks (Сезон 3) (2017) 1080p

Елвін і бурундуки / Alvin and the Chipmunks (Сезон 3, 44 серій з 52) (2017) 1080p

Жанр: мультсеріал, пригоди, комедія
Країна: США, Франція, Південна Корея
Режисер: Дженіс Кармен
Ролі озвучують: Росс Багдасарін, Дженіс Кармен, Ванеса Багдасарін та інші.

Сюжет:
Улюбленці тисяч дітлахів – бурундуки, які змінили життя музиканта на ім’я Елвін – повертаються! Цього разу у форматі мультфільма на телеканалі Плюс Плюс. Дітлахи і дорослі зможуть побачити нові пригоди друзів – як вони ходять до школи, чи продовжують виступати зі своїми піснями, і як у них складаються стосунки з іншими.

«Елвін і бурундуки» на ТВ Плюс – історія, сповнена добра та веселощів, які сподобаються кожному. Цей мультфільм навчить дітей справжній дружбі та відданості – вкрай важливим людським якостям, які допоможуть їм у житті. Дорослі ж зможуть насолодитись часом, проведеним з дітьми за переглядом цієї історії.




Тривалість: 1 серія: 11:02 (цілком серій: 44 з 52)
Якість:

Відео: кодек: розмір кадру: 1920 х 1080 бітрейт: 3000 кб/с
Аудіо: мова: українська переклад: професійний дубльований кодек: 2.0 бітрейт: 256 кб/с
Озвучення:
Перелік серій:
01 Каратист
02 Улюбленці
03 Назад до основ
04 Табель успішності
05 Нянька для кицьок
06 Залежні
07 Зіпсований перегляд
08 Рибний день
09 Мамині клопоти
10 Балеруни
11 Де ти, братику?
12 Стіна
13 Подарунок
14 Теодор сам знає
15 Графітчик
16 Щасливий день
17 Цікавість

18 Нашестя шкідників
19 Утікачі
20 Шерлок бурундук
21 День Незалежності
22 Протилежності притягуються
23 Тимчасова мама
24 Удвох перед лункою
25 Перезавантаження Дейва
26 Мікроби
27
28
29 Хоч як троянду не назви

31 Помста ведмедика Тедді
32 Равликове Різдво
33 Дівчачий вечір
34 Тією ж монетою

37 Самі у школі
38 Привіт із космосу
39 Піца-бот
40 Дні слави
41 Обмін
42 Рознощик газет
43 Через всесвіт
44 Вибір Брітані
47
48
49
50
51
52
Про файл:
General
Unique ID : 125774825225853973903031109768443339988 (0x5E9F59A7B4F7E333B5469F339DF824D4)
Complete name : E:\MULTFILMS\Alvin and the Chipmunks 2017 S03 1080p \S03E01.The Karate Kidder.1080p..
Format :
Format version : Version 4
File size : 258 MiB
Duration : 11 min 13 s
Overall bit rate : 3 218 kb/s
Movie name : Alvin and the Chipmunks 2017 S03 1080p by sergiyko
Encoded date : UTC 2018-11-15 10:31:18
Writing application : v28.1.0 ('Morning Child') 64-bit
Writing library : libebml v1.3.6 + v1.4.9

Video
ID : 1
Format : AVC
Format/Info : Advanced Video Codec
Format profile : [email protected]
Format settings : CABAC / 6 Ref Frames
Format settings, CABAC : Yes
Format settings, ReFrames : 6 frames
Codec ID : V_MPEG4/ISO/AVC
Duration : 11 min 13 s
Bit rate : 2 960 kb/s
Width : 1 920 pixels
Height : 1 080 pixels
Display aspect ratio : 16:9
Frame rate mode : Constant
Frame rate : 25.000 FPS
Color space : YUV
Chroma subsampling : 4:2:0
Bit depth : 8 bits
Scan type : Progressive
Bits/(Pixel*Frame) : 0.057
Stream size : 238 MiB (92%)
Title : 01 Каратист
Language : English
Default : Yes
Forced : No

Audio
ID : 2
Format : LC
Format/Info : Advanced Audio Codec Low Complexity
Codec ID : A_AAC-2
Duration : 11 min 13 s
Bit rate : 256 kb/s
Channel(s) : 2 channels
Channel layout : L R
Sampling rate : 44.1 kHz
Frame rate : 43.066 FPS (1024 SPF)
Compression mode : Lossy
Stream size : 20.6 MiB (8%)
Title : DUB | ПлюсПлюс
Language : Ukrainian
Default : Yes
Forced : No
Скріншоти:


Автор запису: sergiyko


Бронзовий реліз (на рейтинг впливає 75% завантаженого)
 Трекер:    Зареєстрований   

Завантажити / скачати мультфільм українською



відео для новачків



 Зареєстрований:   2019-10-31 13:34
 Розмір:   13.9 GB 
 Оцінка мультсеріалу:   10/10 (Голосів: 6)
   
sergiyko.5 
Забанено
Забанено


З нами з: 25.02.16
Востаннє: 29.10.20
Повідомлень: 3648

2019-04-12 14:55  
Додав нові серії.
sergiyko.5 
Забанено
Забанено


З нами з: 25.02.16
Востаннє: 29.10.20
Повідомлень: 3648

2019-10-31 13:35  
Додав 8 нових серій.
56348gop 
Свій


З нами з: 03.12.16
Востаннє: 27.03.21
Повідомлень: 90

2019-11-16 14:21  
ПлюсПлюс почав 4 сезон.
Ваш часовий пояс: GMT + 2 Години

Нова тема   Відповісти