Місія Неможлива: Фолаут / Mission: Impossible - Fallout (2018) Remux 1080p [IMAX] Ukr/Eng | Sub Ukr/Eng

Нові коментарі

Нова тема   Відповісти
Автор Повідомлення
kryk-v.ya. 
Попереджень: 1
Попереджень: 1 


З нами з: 14.02.14
Востаннє: 22.09.20
Повідомлень: 2240

2018-11-15 12:50  
Місія Неможлива: Фолаут / Mission: Impossible - Fallout (2018) Remux 1080p [IMAX] Ukr/Eng | Sub Ukr/Eng

Місія Неможлива: Фолаут / Mission: Impossible - Fallout (2018) Remux 1080p [IMAX] Ukr/Eng | Sub Ukr/Eng
Українські постери:

Місія Неможлива: Фолаут / Mission: Impossible - Fallout (2018) Remux 1080p [IMAX] Ukr/Eng | Sub Ukr/Eng



Жанр: бойовик, пригодницький, трилер
Країна: США



Кінокомпанія: Paramount Pictures, Bad Robot, Skydance Productions
Режисер: Крістофер МакКуоррі / Christopher McQuarrie
Актори: Том Круз / Tom Cruise, Ребекка Ферґюсон / Rebecca Ferguson, Генрі Кавілл / Henry Cavill, Мішель Монаген / Michelle Monaghan, Ванесса Кірбі / Vanessa Kirby, Саймон Пеґ / Simon Pegg, Вінґ Реймз / Ving Rhames, Шон Гарріс / Sean Harris, Анджела Бассетт / Angela Bassett, Алек Болдвін / Alec Baldwin та інші

Сюжет:
Чергова місія провалилася і тепер світ з острахом чекає на її згубні наслідки. Команда спецагентів начолі з Ітаном Хантом береться виправляти ситуацію. Та зробити це непросто, коли кожен твій крок керівництво ставить під сумнів.


Тривалість: 02:27:41
Якість: Remux 1080p
Відео:
кодек:
розмір кадру: 1920 х 1080
бітрейт: 26,2 Mб/с

Аудіо # 1:
мова: українська
переклад: професійний дубльований | студія LeDoyen
кодек: 5.1
бітрейт: 384 кб/с

Аудіо # 2:
мова: українська
переклад: професійний дубльований | студія LeDoyen
кодек: 2.0
бітрейт: 192 кб/с

Аудіо # 3:
мова: англійська
переклад: оригінал
кодек: True-HD 7.1
бітрейт: 5026 кб/с

Субтитри # 1-2: (full, forced)
мова: українська
тип: програмні (м'які)
формат: *.srt

Субтитри # 3-4: (full, SDH)
мова: англійська
тип: програмні (м'які)
формат: *.srt

Збережено основні розділи.

Info
Код:
General
Unique ID                   : 280994031870417310187722815086245903460 (0xD3657B657CECC57CBB77BB1612C6FC64)
Complete name               : E:\Mission Impossible - Fallout (2018) Remux 1080p (ukr_eng) (Hurtom).
Format                      :
Format version              : Version 4 / Version 2
File size                   : 32.8 GiB
Duration                    : 2 h 27 min
Overall bit rate mode       : Variable
Overall bit rate            : 31.9 Mb/s
Encoded date                : UTC 2019-07-21 21:21:31
Writing application         : v25.0.0 ('Prog Noir') 64-bit
Writing library             : libebml v1.3.6 + v1.4.9
Cover                       : Yes
Attachments                 : cover.jpg

Video
ID                          : 1
Format                      : AVC
Format/Info                 : Advanced Video Codec
Format profile              : [email protected]
Format settings             : CABAC / 4 Ref Frames
Format settings, CABAC      : Yes
Format settings, ReFrames   : 4 frames
Codec ID                    : V_MPEG4/ISO/AVC
Duration                    : 2 h 27 min
Bit rate mode               : Variable
Bit rate                    : 26.2 Mb/s
Maximum bit rate            : 28.0 Mb/s
Width                       : 1 920 pixels
Height                      : 1 080 pixels
Display aspect ratio        : 16:9
Frame rate mode             : Constant
Frame rate                  : 23.976 (24000/1001) FPS
Color space                 : YUV
Chroma subsampling          : 4:2:0
Bit depth                   : 8 bits
Scan type                   : Progressive
Bits/(Pixel*Frame)          : 0.527
Stream size                 : 27.0 GiB (82%)
Default                     : Yes
Forced                      : No

Audio #1
ID                          : 2
Format                      : AC-3
Format/Info                 : Audio Coding 3
Commercial name             : Dolby Digital
Codec ID                    : A_AC3
Duration                    : 2 h 27 min
Bit rate mode               : Constant
Bit rate                    : 384 kb/s
Channel(s)                  : 6 channels
Channel layout              : L R C LFE Ls Rs
Sampling rate               : 48.0 kHz
Frame rate                  : 31.250 FPS (1536 SPF)
Bit depth                   : 16 bits
Compression mode            : Lossy
Stream size                 : 405 MiB (1%)
Title                       : DUB-(iTunes)
Language                    : Ukrainian
Service kind                : Complete Main
Default                     : No
Forced                      : No

Audio #2
ID                          : 3
Format                      : AC-3
Format/Info                 : Audio Coding 3
Commercial name             : Dolby Digital
Codec ID                    : A_AC3
Duration                    : 2 h 27 min
Bit rate mode               : Constant
Bit rate                    : 192 kb/s
Channel(s)                  : 2 channels
Channel layout              : L R
Sampling rate               : 48.0 kHz
Frame rate                  : 31.250 FPS (1536 SPF)
Bit depth                   : 16 bits
Compression mode            : Lossy
Stream size                 : 202 MiB (1%)
Title                       : DUB-(iTunes)
Language                    : Ukrainian
Service kind                : Complete Main
Default                     : No
Forced                      : No

Audio #3
ID                          : 4
Format                      : MLP FBA 16-ch
Format/Info                 : Meridian Lossless Packing FBA with 16-channel presentation
Commercial name             : TrueHD with Dolby Atmos
Codec ID                    : A_TRUEHD
Duration                    : 2 h 27 min
Bit rate mode               : Variable
Bit rate                    : 5 026 kb/s
Maximum bit rate            : 8 175 kb/s
Channel(s)                  : 8 channels
Channel layout              : L R C LFE Ls Rs Lb Rb
Sampling rate               : 48.0 kHz
Frame rate                  : 1 200.000 FPS (40 SPF)
Compression mode            : Lossless
Stream size                 : 5.17 GiB (16%)
Title                       : Оригінал
Language                    : English
Default                     : No
Forced                      : No
Number of dynamic objects   : 11
Bed channel count           : 1 channel
Bed channel configuration   : LFE

Text #1
ID                          : 5
Format                      : UTF-8
Codec ID                    : S_TEXT/UTF8
Codec ID/Info               : UTF-8 Plain Text
Duration                    : 2 h 26 min
Bit rate                    : 75 b/s
Count of elements           : 1576
Stream size                 : 80.6 KiB (0%)
Title                       : full
Language                    : Ukrainian
Default                     : Yes
Forced                      : No

Text #2
ID                          : 6
Format                      : UTF-8
Codec ID                    : S_TEXT/UTF8
Codec ID/Info               : UTF-8 Plain Text
Duration                    : 2 h 25 min
Bit rate                    : 1 b/s
Count of elements           : 37
Stream size                 : 1.31 KiB (0%)
Title                       : forced
Language                    : Ukrainian
Default                     : No
Forced                      : No

Text #3
ID                          : 7
Format                      : UTF-8
Codec ID                    : S_TEXT/UTF8
Codec ID/Info               : UTF-8 Plain Text
Duration                    : 2 h 19 min
Bit rate                    : 47 b/s
Count of elements           : 1558
Stream size                 : 48.5 KiB (0%)
Title                       : full
Language                    : English
Default                     : No
Forced                      : No

Text #4
ID                          : 8
Format                      : UTF-8
Codec ID                    : S_TEXT/UTF8
Codec ID/Info               : UTF-8 Plain Text
Duration                    : 2 h 19 min
Bit rate                    : 54 b/s
Count of elements           : 1876
Stream size                 : 55.3 KiB (0%)
Title                       : SDH
Language                    : English
Default                     : No
Forced                      : No

Menu
00:00:00.000                : en:00:00:00.000 / en:Глава 01
00:10:37.010                : en:00:10:37.010
00:17:11.404                : en:00:17:11.404
00:26:57.240                : en:00:26:57.240
00:35:56.653                : en:00:35:56.653
00:49:18.413                : en:00:49:18.413
01:00:00.804                : en:01:00:00.804
01:10:23.719                : en:01:10:23.719
01:17:07.288                : en:01:17:07.288
01:28:28.469                : en:01:28:28.469
01:39:09.652                : en:01:39:09.652
01:46:26.546                : en:01:46:26.546
01:55:45.563                : en:01:55:45.563
02:03:10.591                : en:02:03:10.591
02:14:00.907                : en:02:14:00.907
02:19:48.087                : en:02:19:48.087
Скріншоти







Джерело: &
Особиста оцінка: 10 - без зайвих вагань рекомендую всім!

Велика подяка пану igor911 за допомогу у створенні релізу.



Золотий реліз (завантажене не впливає на рейтинг)
 Трекер:    Зареєстрований   

Завантажити / скачати фільм українською



відео для новачків



 Зареєстрований:   2019-07-22 09:09
 Розмір:   32.82 GB 
 Оцінка фільму:   9.4/10 (Голосів: 46)
   
omm 
Відео Гуртом - фільмокрай
Відео Гуртом - фільмокрай


З нами з: 12.06.12
Востаннє: 20.09.20
Повідомлень: 2422

2018-11-15 20:34  
Найкраща частина "Місії" і поки що найкращий блокбастер року.
Ніколи б не подумав, що я коли-небудь фільмам такого роду поставлю таку оцінку.
10 з 10

Panther2214 
Попереджень: 1
Попереджень: 1 


З нами з: 29.09.17
Востаннє: 21.09.20
Повідомлень: 439

2018-11-15 20:46  
Що справді??? Невже така класна частина???
kryk-v.ya. 
Попереджень: 1
Попереджень: 1 


З нами з: 14.02.14
Востаннє: 22.09.20
Повідомлень: 2240

2018-11-15 21:09  
Panther2214
поки не скачаєте,не взнаєте. Wide grin

Panther2214 
Попереджень: 1
Попереджень: 1 


З нами з: 29.09.17
Востаннє: 21.09.20
Повідомлень: 439

2018-11-15 21:36  
kryk-v.ya.

Я не знаю, останнім часом починаю розчаровуватись у фільмах, бачив три частини Місії - четверту та п'яту уривками, найбільше справила враження саме перша частина і тому думаю, що шоста десь на рівні 4-5 франшизи тай не вагаюсь завантажувати, бо є певні сумніви.... Щось новеньке є у шостій частині чи все без змін??? І чому серед всіх фільмів найкращою є саме перша частина??? (мається на увазі всі фільми)

kryk-v.ya. 
Попереджень: 1
Попереджень: 1 


З нами з: 14.02.14
Востаннє: 22.09.20
Повідомлень: 2240

2018-11-15 22:00  
Panther2214
мені всі сподобалися, більше сказати нічого не можу...качайте... Wide grin

zevsisver 
Новенький


З нами з: 21.06.09
Востаннє: 21.09.20
Повідомлень: 19

2018-11-15 23:34  
підтримаю Panther2214
не сподобалося Sad (1)
якась банальщина

зараз взагалі на паузу поставив і черговий старт Фалкон9 подивлюся

Krup1k 
Новенький


З нами з: 14.06.16
Востаннє: 20.09.20
Повідомлень: 2

2018-11-16 14:51  
Варто очікувати якісніший звук?
kryk-v.ya. 
Попереджень: 1
Попереджень: 1 


З нами з: 14.02.14
Востаннє: 22.09.20
Повідомлень: 2240

2018-11-16 16:49  
Krup1k
незнаю...можливо...

Panther2214 
Попереджень: 1
Попереджень: 1 


З нами з: 29.09.17
Востаннє: 21.09.20
Повідомлень: 439

2018-11-16 16:57  
kryk-v.ya.

Тут у цій частині неначе все змішалось, епізод зі скелями схожий на "Скелелаз", втеча та погоня - на "Пограбування по італійськи"(спланований та геніальний план втечі), мелодію здається взято з фільму "Інтерстеллар", єдине що вразило - це ідея з кульками плутонію та трюки з гелікоптерами (щось новеньке додали сценаристи), є трішки ляпів, мало інтриги та присутні смішні моменти.... Але вийшло непогано, чогось не вистачає, мабуть жвавості Круза, як не крути вік не за плечима... Для знешкодження бомб багато було фільмів в стилі 90 - х років, тому цю частину Місії не буду вважати шедевром, бо є кращі з меншим бюджетом... Як я зазначав вище, перша частина найкраща....

Rabotnik UA 
Новенький


З нами з: 31.08.15
Востаннє: 02.07.20
Повідомлень: 22

2018-11-16 20:43  
Panther2214
Цитата:
І чому серед всіх фільмів найкращою є саме перша частина??? (мається на увазі всі фільми)

ходять чутки, що "Термінатор 2" є виключенням з цього правила Tongue out (1)

Panther2214 
Попереджень: 1
Попереджень: 1 


З нами з: 29.09.17
Востаннє: 21.09.20
Повідомлень: 439

2018-11-16 21:03  
Rabotnik UA

Мені теж друга частина Термінатора більше імпонує, те саме стосується другої частини Пункту призначення, але це рідкість, переважно кращими є перші частини та інколи треті можуть зрівнятись....

archi86 
Свій


З нами з: 06.01.15
Востаннє: 20.09.20
Повідомлень: 139

2018-11-23 11:33  
В якості 1080 чи 720 буде? Remux 1080p не можу завантажити не має такої флешки.
igor911 
Модератор відео


З нами з: 18.01.08
Востаннє: 22.09.20
Повідомлень: 14999

2018-11-23 13:32  
archi86, є в складі збірок https://toloka.to/t67792 https://toloka.to/t43946
Petrovcheg 
Новенький


З нами з: 10.01.17
Востаннє: 20.09.20
Повідомлень: 14

2018-12-13 01:20  
Штампований, передбачуваний кліповий фільм. Детективна складова, яка б мала бути основою дійсно шпигунського фільму, прямує до нуля. Все це бачили сотні разів. Фільм нічим не чіпляє і не тримає - ледь подужав за 2 підходи.
Dead_Cossack 
Новенький


З нами з: 24.02.16
Востаннє: 21.09.20
Повідомлень: 1

2019-04-01 20:46  
Усім вітання. Один із кращих фільмів року, особливо, якщо знати, що все це робить сам Том у фільмі, без каскадерів. Питання: чи можна очікувати 4К якість?
kryk-v.ya. 
Попереджень: 1
Попереджень: 1 


З нами з: 14.02.14
Востаннє: 22.09.20
Повідомлень: 2240

2019-07-22 09:10  
Реліз оновлено:додав доріжку 5.1.
LastExile 
Частий відвідувач


З нами з: 25.09.10
Востаннє: 13.09.20
Повідомлень: 26

2019-07-23 00:44  
kryk-v.ya.
ДЯКУЮ!

kryk-v.ya. 
Попереджень: 1
Попереджень: 1 


З нами з: 14.02.14
Востаннє: 22.09.20
Повідомлень: 2240

2019-07-23 06:49  
LastExile написано:

kryk-v.ya.
ДЯКУЮ!

будь-ласка.

O_omarella! 
Поважний учасник


З нами з: 14.06.13
Востаннє: 18.08.20
Повідомлень: 194

2019-10-20 09:58  
Ну для школярів фільм, ну не заходять мені чомусь...
[email protected] 
VIP


З нами з: 25.03.17
Востаннє: 21.09.20
Повідомлень: 551

2020-09-07 21:48  
10/10
Ваш часовий пояс: GMT + 2 Години

Нова тема   Відповісти