Місія Неможлива: Фолаут / Mission: Impossible - Fallout (2018) Remux 1080p (IMAX) Ukr/Eng | Sub Ukr/Eng

Нові коментарі

Нова тема   Відповісти
Автор Повідомлення
kryk-v.ya. 
VIP


З нами з: 14.02.14
Востаннє: 14.12.18
Повідомлень: 736

2018-11-15 11:50  
Місія Неможлива: Фолаут / Mission: Impossible - Fallout (2018) Remux 1080p (IMAX) Ukr/Eng | Sub Ukr/Eng

Місія Неможлива: Фолаут / Mission: Impossible - Fallout (2018) Remux 1080p (IMAX) Ukr/Eng | Sub Ukr/Eng


Жанр: бойовик, пригодницький, трилер
Країна: США



Кінокомпанія: Paramount Pictures, Bad Robot, Skydance Productions
Режисер: Крістофер МакКуоррі / Christopher McQuarrie
Актори: Том Круз / Tom Cruise, Ребекка Ферґюсон / Rebecca Ferguson, Генрі Кавілл / Henry Cavill, Мішель Монаген / Michelle Monaghan, Ванесса Кірбі / Vanessa Kirby, Саймон Пеґ / Simon Pegg, Вінґ Реймз / Ving Rhames, Шон Гарріс / Sean Harris, Анджела Бассетт / Angela Bassett, Алек Болдвін / Alec Baldwin та інші

Сюжет:
Чергова місія провалилася і тепер світ з острахом чекає на її згубні наслідки. Команда спецагентів начолі з Ітаном Хантом береться виправляти ситуацію. Та зробити це непросто, коли кожен твій крок керівництво ставить під сумнів.


Тривалість: 02:27:41
Якість: Remux 1080p
Відео:
кодек:
розмір кадру: 1920 х 1080
бітрейт: 26.2 Mб/с

Аудіо # 1:
мова: українська
переклад: професійний дубльований | iTunes
кодек: 2.0
бітрейт: 192 кб/с

Аудіо # 2:
мова: англійська
переклад: оригінал
кодек: True-HD 7.1
бітрейт: 5026 кб/с

Субтитри:1-4 (full,forсed)
мова: українська
тип: пререндерні
формат: *.pgs

Субтитри:5-6 (full, forсed)
мова: англійська
тип: пререндерні
формат: *.pgs

Збережено основні розділи.

Шухляда
General
Unique ID : 120550450051185288603976813102308118162 (0x5AB12C126F529D0B04222EB92491CE92)
Complete name : E:\Mission Impossible - Fallout (2018) Remux 1080p.
Format :
Format version : Version 4
File size : 32.5 GiB
Duration : 2 h 27 min
Overall bit rate mode : Variable
Overall bit rate : 31.5 Mb/s
Encoded date : UTC 2018-11-15 08:30:59
Writing application : v25.0.0 ('Prog Noir') 64-bit
Writing library : libebml v1.3.6 + v1.4.9
Cover : Yes
Attachments : cover.jpg

Video
ID : 1
Format : AVC
Format/Info : Advanced Video Codec
Format profile : [email protected]
Format settings : CABAC / 4 Ref Frames
Format settings, CABAC : Yes
Format settings, ReFrames : 4 frames
Codec ID : V_MPEG4/ISO/AVC
Duration : 2 h 27 min
Bit rate mode : Variable
Bit rate : 26.2 Mb/s
Maximum bit rate : 28.0 Mb/s
Width : 1 920 pixels
Height : 1 080 pixels
Display aspect ratio : 16:9
Frame rate mode : Constant
Frame rate : 23.976 (24000/1001) FPS
Color space : YUV
Chroma subsampling : 4:2:0
Bit depth : 8 bits
Scan type : Progressive
Bits/(Pixel*Frame) : 0.527
Stream size : 27.0 GiB (83%)
Default : Yes
Forced : No

Audio #1
ID : 2
Format : AC-3
Format/Info : Audio Coding 3
Commercial name : Dolby Digital
Codec ID : A_AC3
Duration : 2 h 27 min
Bit rate mode : Constant
Bit rate : 192 kb/s
Channel(s) : 2 channels
Channel layout : L R
Sampling rate : 48.0 kHz
Frame rate : 31.250 FPS (1536 SPF)
Bit depth : 16 bits
Compression mode : Lossy
Stream size : 202 MiB (1%)
Title : DUB-(iTunes)
Language : Ukrainian
Service kind : Complete Main
Default : Yes
Forced : No

Audio #2
ID : 3
Format : MLP FBA 16-ch
Format/Info : Meridian Lossless Packing FBA with 16-channel presentation
Commercial name : Dolby TrueHD with Dolby Atmos
Codec ID : A_TRUEHD
Duration : 2 h 27 min
Bit rate mode : Variable
Bit rate : 5 026 kb/s
Maximum bit rate : 8 175 kb/s
Channel(s) : 8 channels
Channel layout : L R C LFE Ls Rs Lb Rb
Sampling rate : 48.0 kHz
Frame rate : 1 200.000 FPS (40 SPF)
Compression mode : Lossless
Stream size : 5.17 GiB (16%)
Title : Оригінал
Language : English
Default : No
Forced : No
Number of dynamic objects : 11
Bed channel count : 1 channel
Bed channel configuration : LFE

Text #1
ID : 4
Format : PGS
Muxing mode : zlib
Codec ID : S_HDMV/PGS
Codec ID/Info : Picture based subtitle format used on BDs/HD-DVDs
Duration : 2 h 26 min
Bit rate : 28.1 kb/s
Count of elements : 3152
Stream size : 29.4 MiB (0%)
Title : full
Language : Ukrainian
Default : Yes
Forced : No

Text #2
ID : 5
Format : PGS
Muxing mode : zlib
Codec ID : S_HDMV/PGS
Codec ID/Info : Picture based subtitle format used on BDs/HD-DVDs
Duration : 2 h 25 min
Bit rate : 532 b/s
Count of elements : 74
Stream size : 568 KiB (0%)
Title : forsed
Language : Ukrainian
Default : No
Forced : No

Text #3
ID : 6
Format : PGS
Muxing mode : zlib
Codec ID : S_HDMV/PGS
Codec ID/Info : Picture based subtitle format used on BDs/HD-DVDs
Duration : 5 s 0 ms
Bit rate : 21.1 kb/s
Count of elements : 2
Stream size : 12.9 KiB (0%)
Language : Ukrainian
Default : No
Forced : No

Text #4
ID : 7
Format : PGS
Muxing mode : zlib
Codec ID : S_HDMV/PGS
Codec ID/Info : Picture based subtitle format used on BDs/HD-DVDs
Duration : 5 s 0 ms
Bit rate : 21.1 kb/s
Count of elements : 2
Stream size : 12.9 KiB (0%)
Language : Ukrainian
Default : No
Forced : No

Text #5
ID : 8
Format : PGS
Muxing mode : zlib
Codec ID : S_HDMV/PGS
Codec ID/Info : Picture based subtitle format used on BDs/HD-DVDs
Duration : 2 h 19 min
Bit rate : 29.7 kb/s
Count of elements : 3111
Stream size : 29.5 MiB (0%)
Title : forsed
Language : English
Default : No
Forced : No

Text #6
ID : 9
Format : PGS
Muxing mode : zlib
Codec ID : S_HDMV/PGS
Codec ID/Info : Picture based subtitle format used on BDs/HD-DVDs
Duration : 2 h 19 min
Bit rate : 35.2 kb/s
Count of elements : 3747
Stream size : 35.1 MiB (0%)
Title : full
Language : English
Default : No
Forced : No

Menu
00:00:00.000 : en:00:00:00.000 / en:Глава 01
00:10:37.010 : en:00:10:37.010
00:17:11.404 : en:00:17:11.404
00:26:57.240 : en:00:26:57.240
00:35:56.653 : en:00:35:56.653
00:49:18.413 : en:00:49:18.413
01:00:00.804 : en:01:00:00.804
01:10:23.719 : en:01:10:23.719
01:17:07.288 : en:01:17:07.288
01:28:28.469 : en:01:28:28.469
01:39:09.652 : en:01:39:09.652
01:46:26.546 : en:01:46:26.546
01:55:45.563 : en:01:55:45.563
02:03:10.591 : en:02:03:10.591
02:14:00.907 : en:02:14:00.907
02:19:48.087 : en:02:19:48.087
Знимки





Джерело: &
Особиста оцінка: 10 - без зайвих вагань рекомендую всім!

Велика подяка пану igor911 за допомогу у створенні релізу.



Золотий реліз (завантажене не впливає на рейтинг)
 Трекер:    Зареєстрований   

Завантажити / скачати фільм українською



відео для новачків



 Зареєстрований:   2018-11-15 11:50
 Розмір:   32.46 GB 
 Оцінка фільму:   9/10 (Голосів: 26)
   
omm 
Відео Гуртом - фільмокрай
Відео Гуртом - фільмокрай


З нами з: 12.06.12
Востаннє: 14.12.18
Повідомлень: 2266

2018-11-15 19:34  
Найкраща частина "Місії" і поки що найкращий блокбастер року.
Ніколи б не подумав, що я коли-небудь фільмам такого роду поставлю таку оцінку.
10 з 10

Panther2214 
Поважний учасник


З нами з: 29.09.17
Востаннє: 12.12.18
Повідомлень: 190

2018-11-15 19:46  
Що справді??? Невже така класна частина???
kryk-v.ya. 
VIP


З нами з: 14.02.14
Востаннє: 14.12.18
Повідомлень: 736

2018-11-15 20:09  
Panther2214
поки не скачаєте,не взнаєте. Wide grin

Panther2214 
Поважний учасник


З нами з: 29.09.17
Востаннє: 12.12.18
Повідомлень: 190

2018-11-15 20:36  
kryk-v.ya.

Я не знаю, останнім часом починаю розчаровуватись у фільмах, бачив три частини Місії - четверту та п'яту уривками, найбільше справила враження саме перша частина і тому думаю, що шоста десь на рівні 4-5 франшизи тай не вагаюсь завантажувати, бо є певні сумніви.... Щось новеньке є у шостій частині чи все без змін??? І чому серед всіх фільмів найкращою є саме перша частина??? (мається на увазі всі фільми)

kryk-v.ya. 
VIP


З нами з: 14.02.14
Востаннє: 14.12.18
Повідомлень: 736

2018-11-15 21:00  
Panther2214
мені всі сподобалися, більше сказати нічого не можу...качайте... Wide grin

zevsisver 
Новенький


З нами з: 21.06.09
Востаннє: 14.12.18
Повідомлень: 13

2018-11-15 22:34  
підтримаю Panther2214
не сподобалося Sad (1)
якась банальщина

зараз взагалі на паузу поставив і черговий старт Фалкон9 подивлюся

Krup1k 
Новенький


З нами з: 14.06.16
Востаннє: 12.12.18
Повідомлень: 2

2018-11-16 13:51  
Варто очікувати якісніший звук?
kryk-v.ya. 
VIP


З нами з: 14.02.14
Востаннє: 14.12.18
Повідомлень: 736

2018-11-16 15:49  
Krup1k
незнаю...можливо...

Panther2214 
Поважний учасник


З нами з: 29.09.17
Востаннє: 12.12.18
Повідомлень: 190

2018-11-16 15:57  
kryk-v.ya.

Тут у цій частині неначе все змішалось, епізод зі скелями схожий на "Скелелаз", втеча та погоня - на "Пограбування по італійськи"(спланований та геніальний план втечі), мелодію здається взято з фільму "Інтерстеллар", єдине що вразило - це ідея з кульками плутонію та трюки з гелікоптерами (щось новеньке додали сценаристи), є трішки ляпів, мало інтриги та присутні смішні моменти.... Але вийшло непогано, чогось не вистачає, мабуть жвавості Круза, як не крути вік не за плечима... Для знешкодження бомб багато було фільмів в стилі 90 - х років, тому цю частину Місії не буду вважати шедевром, бо є кращі з меншим бюджетом... Як я зазначав вище, перша частина найкраща....

Rabotnik UA 
Новенький


З нами з: 31.08.15
Востаннє: 12.12.18
Повідомлень: 21

2018-11-16 19:43  
Panther2214
Цитата:
І чому серед всіх фільмів найкращою є саме перша частина??? (мається на увазі всі фільми)

ходять чутки, що "Термінатор 2" є виключенням з цього правила Tongue out (1)

Panther2214 
Поважний учасник


З нами з: 29.09.17
Востаннє: 12.12.18
Повідомлень: 190

2018-11-16 20:03  
Rabotnik UA

Мені теж друга частина Термінатора більше імпонує, те саме стосується другої частини Пункту призначення, але це рідкість, переважно кращими є перші частини та інколи треті можуть зрівнятись....

archi86 
Свій


З нами з: 06.01.15
Востаннє: 13.12.18
Повідомлень: 125

2018-11-23 10:33  
В якості 1080 чи 720 буде? Remux 1080p не можу завантажити не має такої флешки.
igor911 
Відео Гуртом
Відео Гуртом


З нами з: 18.01.08
Востаннє: 14.12.18
Повідомлень: 11605

2018-11-23 12:32  
archi86, є в складі збірок https://toloka.to/t67792 https://toloka.to/t43946
Petrovcheg 
Новенький


З нами з: 10.01.17
Востаннє: 13.12.18
Повідомлень: 5

2018-12-13 00:20  
Штампований, передбачуваний кліповий фільм. Детективна складова, яка б мала бути основою дійсно шпигунського фільму, прямує до нуля. Все це бачили сотні разів. Фільм нічим не чіпляє і не тримає - ледь подужав за 2 підходи.
Ваш часовий пояс: GMT + 2 Години

Нова тема   Відповісти