Праведник 2 / The Equalizer 2 (2018) Remux 1080p Ukr/Eng | Sub Ukr/Eng

Нові коментарі

Нова тема   Відповісти
Автор Повідомлення
kryk-v.ya. 
VIP


З нами з: 14.02.14
Востаннє: 25.04.19
Повідомлень: 1135

2018-11-14 01:19  
Праведник 2 / The Equalizer 2 (2018) Remux 1080p Ukr/Eng | Sub Ukr/Eng

Праведник 2 / The Equalizer 2 (2018) Remux 1080p Ukr/Eng | Sub Ukr/Eng


Жанр: бойовик, кримінал, трилер
Країна: США



Кінокомпанія: Sony Pictures, Columbia Pictures, Village Roadshow Pictures
Режисер: Антуан Фукуа
Актори: Дензел Вашинґтон, Педро Паскаль, Ештон Сандерс, Мелісса Лео, Білл Пуллман, Джонатан Скарф, Сакіна Джеффрі, Орсон Бін, Казі Таугінас, Гарретт Голден та інші

Сюжет:
Головному герою фільму, колишньому агенту ЦРУ, Роберту Макколу подобалося вести розмірене життя пенсіонера. Але усьому свій час. Як тільки він зрозумів, що його знання і вміння можуть зробити світ кращим, він взявся за справу. У його послужному списку боротьба з російською мафією. Працюючи один, він зумів домогтися багато чого. Тож, мабуть, ще не час відпочивати.


Тривалість: 02:00:57
Якість: Remux 1080p
Відео:
кодек:
розмір кадру: 1920 х 1080
бітрейт: 22,7 Mб/с

Аудіо # 1:
мова: українська
переклад: професійний дубльований | студія LeDoyen
кодек: 2.0 [stereo]
бітрейт: 192 кб/с

Аудіо # 2:
мова: українська
переклад: професійний дубльований | студія LeDoyen
кодек: 5.1
бітрейт: 640 кб/с

Аудіо # 3:
мова: англійська
переклад: оригінал
кодек: -HD MA 7.1
бітрейт: 2733 кб/с

Субтитри # 1:
мова: українська | forced
тип: програмні (м'які)
формат: *.srt|

Субтитри # 2:
мова: українська | full
тип: програмні (м'які)
формат: *.srt

Субтитри # 3:
мова: англійська
тип: пререндерні | (forced)
формат: *.pgs

Субтитри # 4:
мова: англійська | (full)
тип: пререндерні
формат: *.pgs

Збережено основні розділи, як на Блю-рей.

Info
Код:
General
Unique ID                   : 86788775105189362406038776063566817122 (0x414AE8FB147D7EE460DD0C12E2882762)
Complete name               : E:\The Equalizer 2 (2018) Remux 1080p.
Format                      :
Format version              : Version 4 / Version 2
File size                   : 22.3 GiB
Duration                    : 2 h 0 min
Overall bit rate mode       : Variable
Overall bit rate            : 26.3 Mb/s
Encoded date                : UTC 2019-01-07 08:14:27
Writing application         : v25.0.0 ('Prog Noir') 64-bit
Writing library             : libebml v1.3.6 + v1.4.9
Attachments                 : The-Equalizer-2-2018.md.jpg

Video
ID                          : 1
Format                      : AVC
Format/Info                 : Advanced Video Codec
Format profile              : [email protected]
Format settings             : CABAC / 2 Ref Frames
Format settings, CABAC      : Yes
Format settings, ReFrames   : 2 frames
Format settings, GOP        : M=1, N=10
Codec ID                    : V_MPEG4/ISO/AVC
Duration                    : 2 h 0 min
Bit rate mode               : Variable
Bit rate                    : 22.7 Mb/s
Width                       : 1 920 pixels
Height                      : 1 080 pixels
Display aspect ratio        : 16:9
Frame rate mode             : Constant
Frame rate                  : 23.976 (24000/1001) FPS
Color space                 : YUV
Chroma subsampling          : 4:2:0
Bit depth                   : 8 bits
Scan type                   : Progressive
Bits/(Pixel*Frame)          : 0.458
Stream size                 : 19.2 GiB (86%)
Default                     : Yes
Forced                      : No

Audio #1
ID                          : 2
Format                      : AC-3
Format/Info                 : Audio Coding 3
Commercial name             : Dolby Digital
Codec ID                    : A_AC3
Duration                    : 2 h 0 min
Bit rate mode               : Constant
Bit rate                    : 192 kb/s
Channel(s)                  : 2 channels
Channel layout              : L R
Sampling rate               : 48.0 kHz
Frame rate                  : 31.250 FPS (1536 SPF)
Bit depth                   : 16 bits
Compression mode            : Lossy
Stream size                 : 166 MiB (1%)
Title                       : MVO-(LeDoyen)
Language                    : Ukrainian
Service kind                : Complete Main
Default                     : Yes
Forced                      : No

Audio #2
ID                          : 3
Format                      : AC-3
Format/Info                 : Audio Coding 3
Commercial name             : Dolby Digital
Codec ID                    : A_AC3
Duration                    : 2 h 0 min
Bit rate mode               : Constant
Bit rate                    : 640 kb/s
Channel(s)                  : 6 channels
Channel layout              : L R C LFE Ls Rs
Sampling rate               : 48.0 kHz
Frame rate                  : 31.250 FPS (1536 SPF)
Bit depth                   : 16 bits
Compression mode            : Lossy
Stream size                 : 554 MiB (2%)
Title                       : DUB (Blu-ray)
Language                    : Ukrainian
Service kind                : Complete Main
Default                     : No
Forced                      : No

Audio #3
ID                          : 4
Format                      : XLL
Format/Info                 : Digital Theater Systems
Commercial name             : -HD Master Audio
Codec ID                    : A_DTS
Duration                    : 2 h 0 min
Bit rate mode               : Variable
Bit rate                    : 2 733 kb/s
Channel(s)                  : 8 channels
Channel layout              : C L R LFE Lb Rb Lss Rss
Sampling rate               : 48.0 kHz
Frame rate                  : 93.750 FPS (512 SPF)
Bit depth                   : 16 bits
Compression mode            : Lossless
Stream size                 : 2.31 GiB (10%)
Title                       : Оригінал
Language                    : English
Default                     : No
Forced                      : No

Text #1
ID                          : 5
Format                      : UTF-8
Codec ID                    : S_TEXT/UTF8
Codec ID/Info               : UTF-8 Plain Text
Duration                    : 1 h 54 min
Bit rate                    : 1 b/s
Count of elements           : 29
Stream size                 : 979 Bytes (0%)
Title                       : forsed
Language                    : Ukrainian
Default                     : Yes
Forced                      : No

Text #2
ID                          : 6
Format                      : UTF-8
Codec ID                    : S_TEXT/UTF8
Codec ID/Info               : UTF-8 Plain Text
Duration                    : 1 h 59 min
Bit rate                    : 55 b/s
Count of elements           : 1058
Stream size                 : 48.7 KiB (0%)
Title                       : full
Language                    : Ukrainian
Default                     : No
Forced                      : No

Text #3
ID                          : 7
Format                      : PGS
Muxing mode                 : zlib
Codec ID                    : S_HDMV/PGS
Codec ID/Info               : Picture based subtitle format used on BDs/HD-DVDs
Duration                    : 1 h 56 min
Bit rate                    : 23.0 kb/s
Count of elements           : 2080
Stream size                 : 19.2 MiB (0%)
Title                       : forsed
Language                    : English
Default                     : No
Forced                      : No

Text #4
ID                          : 8
Format                      : PGS
Muxing mode                 : zlib
Codec ID                    : S_HDMV/PGS
Codec ID/Info               : Picture based subtitle format used on BDs/HD-DVDs
Duration                    : 1 h 58 min
Bit rate                    : 28.0 kb/s
Count of elements           : 2628
Stream size                 : 23.8 MiB (0%)
Title                       : full
Language                    : English
Default                     : No
Forced                      : No

Menu
00:00:00.000                : en:00:00:00.000 / en:Глава 01
00:06:50.033                : en:00:06:50.033
00:13:22.634                : en:00:13:22.634
00:16:43.460                : en:00:16:43.460
00:27:10.920                : en:00:27:10.920
00:34:05.459                : en:00:34:05.459
00:41:05.545                : en:00:41:05.545
00:47:08.617                : en:00:47:08.617
00:54:17.336                : en:00:54:17.336
01:02:17.817                : en:01:02:17.817
01:11:18.731                : en:01:11:18.731
01:18:39.130                : en:01:18:39.130
01:25:19.947                : en:01:25:19.947
01:31:40.243                : en:01:31:40.243
01:40:10.337                : en:01:40:10.337
01:52:14.726                : en:01:52:14.726
Скріншоти






Джерело: &
Особиста оцінка: 10 - без зайвих вагань рекомендую всім!

Велика подяка пану Electroz за синхронізацію доріжки №1 та укр.форсовані субтитри.


Золотий реліз (завантажене не впливає на рейтинг)
 Трекер:    Зареєстрований   

Завантажити / скачати фільм українською



відео для новачків



 Зареєстрований:   2019-01-07 12:08
 Розмір:   22.25 GB 
 Оцінка фільму:   8.8/10 (Голосів: 24)
   
Інші релізи
   Праведник 2 / The Equalizer 2 (2018) Ukr/Eng | Sub Ukr/Eng uafilm.tv  30 / 0   2.18 GB   2019-01-07 19:58 
   Праведник 2 / The Equalizer 2 (2018) AVC Ukr/Eng | Sub Ukr/Eng 11FrYkT  13 / 0   2.44 GB   2019-01-07 19:25 
   Праведник 2 / The Equalizer 2 (2018) 1080p Ukr/Eng | Sub Ukr/Eng igor911  8 / 0   14.71 GB   2019-01-07 10:37 
   Праведник 2 / The Equalizer 2 (2018) 720p Ukr/Eng | Sub Ukr/Eng igor911  13 / 0   7.07 GB   2019-01-07 04:28 
Oleksa9 
VIP


З нами з: 17.05.12
Востаннє: 25.04.19
Повідомлень: 342

2018-11-14 20:03  
!! Дякую! А першу частину ?
kryk-v.ya. 
VIP


З нами з: 14.02.14
Востаннє: 25.04.19
Повідомлень: 1135

2018-11-14 21:53  
Oleksa9 Будь-ласка.
Так на толоці немов би є блюр.

Oleksa9 
VIP


З нами з: 17.05.12
Востаннє: 25.04.19
Повідомлень: 342

2018-11-15 06:32  
lol, блюр це те саме, що й BDAV - m2ts .... Remux в б =)
kryk-v.ya. 
VIP


З нами з: 14.02.14
Востаннє: 25.04.19
Повідомлень: 1135

2018-11-15 11:38  
Oleksa9 написано:
Remux в б =)

зроблю з задоволенням, фільм дійсно суперовий...

omm 
Відео Гуртом - фільмокрай
Відео Гуртом - фільмокрай


З нами з: 12.06.12
Востаннє: 25.04.19
Повідомлень: 2276

2018-11-15 20:37  
Осилив. Є претензії до сценарію, але загалом фільм порадував.
Головний герой крутий, а цього зрештою буває іноді достатньо, щоб отримати задоволення від перегляду.
7,5 з 10

andik1 
Новенький


З нами з: 10.06.12
Востаннє: 25.04.19
Повідомлень: 13

2018-11-18 13:46  
Хороший фільм - раджу переглянути!!!
Jatx_11 
Відео Гуртом - фільмокрай
Відео Гуртом - фільмокрай


З нами з: 20.04.11
Востаннє: 20.04.19
Повідомлень: 778

2019-01-07 01:18  
Праведник 2 / The Equalizer 2 (2018) 640kbps
https://fex.net/700557165539

kryk-v.ya. 
VIP


З нами з: 14.02.14
Востаннє: 25.04.19
Повідомлень: 1135

2019-01-07 12:10  
Реліз оновлено:
додано доріжку 5.1 дубляж з Bluray.

MakRA 
Поважний учасник


З нами з: 11.11.18
Востаннє: 25.04.19
Повідомлень: 174

2019-01-07 12:31  
Дякую! До колекції якраз піде)
igor911 
Відео Гуртом
Відео Гуртом


З нами з: 18.01.08
Востаннє: 25.04.19
Повідомлень: 12343

2019-01-07 13:42  
kryk-v.ya. написано:
Аудіо # 1:
мова: українська
кодек: 2.0 [stereo]

навіщо в ремуксі з двох однакових доріжок першою та за замовчуванням залишати стерео при наявності ліцензійного 5.1 з блурея?

[email protected] 
VIP


З нами з: 25.03.17
Востаннє: 21.04.19
Повідомлень: 292

2019-04-06 00:20  
10 з 10. ГАРНИЙ ФІЛЬМ
Ваш часовий пояс: GMT + 2 Години

Нова тема   Відповісти