Тарзан 2 / Tarzan II (2005) HDTV 1080i Ukr/Eng | Sub Ukr

Нові коментарі

Нова тема   Відповісти
Автор Повідомлення
sergiyko.5 
VIP


З нами з: 25.02.16
Востаннє: 22.02.20
Повідомлень: 2940

2018-11-13 23:20  
Тарзан 2 / Tarzan II (2005) HDTV 1080i Ukr/Eng | Sub Ukr

Тарзан 2 / Tarzan II (2005) HDTV 1080i Ukr/Eng | Sub Ukr

Жанр: анімація, пригоди, сімейний
Країна: США
Кінокомпанія: DisneyToon Studios, Toon City, Walt Disney Pictures
Режисер: Браян Сміт
Ролі озвучують: Гаррісон Чед, Георг Карлін, Ґленн Клоз, Бред Ґарретт, Рон Пірман

Сюжет:
До того, як стати Королем Джунглів, Тарзан був незграбним маленьким хлопчиком, що намагається пристосуватися до навколишнього світу. Але одного разу він робить помилку і тим самим піддає ризику свою сім'ю. З цього моменту Тарзан вирішує, що їм буде безпечніше без нього, і покидає тих, кого любить.
Під час своєї небезпечної подорожі Тарзан знайомиться із загадковим Зугором - самим могутнім представником тих місць. Будучи разом, Тарзан і Зугор розуміють, що бути різними не так вже й погано, а друзі і сім'я - дві найголовніші цінності на світі.




Тривалість: 01:08:09
Якість: HDTV

Відео: кодек: розмір кадру: 1920 x 1080 бітрейт: 6000 кб/с
Аудіо # 1: мова: українська переклад: професійний дубльований кодек: 2.0 бітрейт: 192 кб/с
Озвучення:
Аудіо # 2: мова: англійська переклад: оригінал кодек: 6ch бітрейт: 448 кб/с
Субтитри: мова: англійська тип: програмні (м’які) формат: *.srt
Про файл:
General
Unique ID : 334258373909875635053503997234823208023 (0xFB77D236B955E4589CDA218DC6FE9C57)
Complete name : G:\Torrents2\MULT\Tarzan.2.2005.1080i.HDTV.Ukr.Eng.
Format :
Format version : Version 4
File size : 3.17 GiB
Duration : 1 h 8 min
Overall bit rate mode : Variable
Overall bit rate : 6 656 kb/s
Encoded date : UTC 2018-11-13 21:10:53
Writing application : v28.1.0 ('Morning Child') 64-bit
Writing library : libebml v1.3.6 + v1.4.9
Cover : Yes
Attachments : cover.jpg

Video
ID : 1
Format : AVC
Format/Info : Advanced Video Codec
Format profile : [email protected]
Format settings : CABAC / 3 Ref Frames
Format settings, CABAC : Yes
Format settings, ReFrames : 3 frames
Codec ID : V_MPEG4/ISO/AVC
Duration : 1 h 8 min
Bit rate mode : Variable
Bit rate : 6 012 kb/s
Maximum bit rate : 40.0 Mb/s
Width : 1 920 pixels
Height : 1 080 pixels
Display aspect ratio : 16:9
Frame rate mode : Variable
Frame rate : 50.000 FPS
Original frame rate : 25.000 FPS
Standard : Component
Color space : YUV
Chroma subsampling : 4:2:0
Bit depth : 8 bits
Scan type : Interlaced
Scan type, store method : Separated fields
Scan order : Top Field First
Bits/(Pixel*Frame) : 0.058
Stream size : 2.86 GiB (90%)
Title : Tarzan 2 2005
Language : English
Default : Yes
Forced : No
Color range : Limited
Color primaries : BT.709
Transfer characteristics : BT.709
Matrix coefficients : BT.709

Audio #1
ID : 2
Format : AC-3
Format/Info : Audio Coding 3
Commercial name : Dolby Digital
Codec ID : A_AC3
Duration : 1 h 8 min
Bit rate mode : Constant
Bit rate : 192 kb/s
Channel(s) : 2 channels
Channel layout : L R
Sampling rate : 48.0 kHz
Frame rate : 31.250 FPS (1536 SPF)
Bit depth : 16 bits
Compression mode : Lossy
Stream size : 93.6 MiB (3%)
Title : DUB 2ch
Language : Ukrainian
Service kind : Complete Main
Default : Yes
Forced : Yes

Audio #2
ID : 3
Format : AC-3
Format/Info : Audio Coding 3
Commercial name : Dolby Digital
Codec ID : A_AC3
Duration : 1 h 8 min
Bit rate mode : Constant
Bit rate : 448 kb/s
Channel(s) : 6 channels
Channel layout : L R C LFE Ls Rs
Sampling rate : 48.0 kHz
Frame rate : 31.250 FPS (1536 SPF)
Bit depth : 16 bits
Compression mode : Lossy
Stream size : 218 MiB (7%)
Title : Original
Language : English
Service kind : Complete Main
Default : No
Forced : No

Text
ID : 4
Format : UTF-8
Codec ID : S_TEXT/UTF8
Codec ID/Info : UTF-8 Plain Text
Duration : 1 h 4 min
Bit rate : 56 b/s
Count of elements : 1001
Stream size : 26.8 KiB (0%)
Language : English
Default : No
Forced : No
Скріншоти:



Запис: xslim
Зведення: sergiyko


 Трекер:    Зареєстрований   

Завантажити / скачати мультфільм українською



відео для новачків



 Зареєстрований:   2018-11-13 23:20
 Розмір:   3.17 GB 
 Оцінка мультфільму:   10/10 (Голосів: 3)
   
Інші релізи
   Тарзан 2 / Tarzan II (2005) 1080p Ukr/Eng | Sub Eng drop_plz  4 / 0   2.89 GB   2020-02-02 16:22 
   Тарзан 2 / Tarzan II (2005) Ukr/Eng Givi  4 / 0   1.28 GB   2011-02-24 22:02 
andros507 
VIP


З нами з: 15.09.10
Востаннє: 22.02.20
Повідомлень: 317

2018-11-13 23:41  
Тут вказаний ще й дубляж Плюсів, додасте?
sergiyko.5 
VIP


З нами з: 25.02.16
Востаннє: 22.02.20
Повідомлень: 2940

2018-11-13 23:48  
andros507
Я думаю, озвучка ідентична.

Electroz 
Відео Гуртом - підтримка та поширення
Відео Гуртом - підтримка та поширення


З нами з: 18.09.14
Востаннє: 22.02.20
Повідомлень: 3773

2018-11-13 23:51  
sergiyko.5
В цьому релізі також дубляж? Бо вказано багатоголоска.

Додано через 1 хвилину 47 секунд:

До цього мультфільму є без логотипу.

Ваш часовий пояс: GMT + 2 Години

Нова тема   Відповісти