Тарзан / Tarzan (2013) AVC Ukr/Eng | Sub Eng

Нові коментарі

Нова тема   Відповісти
Автор Повідомлення
sergiyko.5 
VIP


З нами з: 25.02.16
Востаннє: 25.04.19
Повідомлень: 2253

2018-11-13 21:57  
Тарзан / Tarzan (2013) AVC Ukr/Eng | Sub Eng

Тарзан / Tarzan (2013) AVC Ukr/Eng | Sub Eng

Жанр: анімація, пригоди, сімейний
Країна: Німеччина
Кінокомпанія: Constantin Film Produktion
Режисер: Райнхард Клос

Сюжет:
Тарзан був вихований в джунглях, плем'ям горил. Після тієї жахливої ​​авіакатастрофи його батьки так і не вижили, хоча намагалися. Однак закон джунглів не зміг полонити назавжди Тарзана, який зустрівши прекрасну Джейн Портер закохався в неї. Разом вони повинні зупинити плани жадібного директора компанії, що раніше належала батькам дикого лорда Грейстока. Боротьба з лиходієм відкриє для героя страшну таємницю, з якої саме причини загинули його батьки.




Тривалість: 01:34:10
Якість:

Відео: кодек: розмір кадру: 1194x500 бітрейт: 3500 кб/с
Аудіо # 1: мова: українська переклад: багатоголосий закадровий кодек: 2.0 бітрейт: 192 кб/с
Озвучення:
Аудіо # 2: мова: англійська переклад: професійний дубльований кодек: 6ch бітрейт: 448 кб/с
Субтитри: мова: англійська тип: програмні (м’які) формат: *.srt
Про файл:
General
Unique ID : 131126549017524243375053195691059080957 (0x62A60E0280E85018B31BF717B6846EFD)
Complete name : G:\Torrents2\MULT\Tarzan.2013.AVC.Ukr.Eng.
Format :
Format version : Version 4
File size : 2.74 GiB
Duration : 1 h 34 min
Overall bit rate : 4 166 kb/s
Movie name : Tarzan 2013 by sergiyko
Encoded date : UTC 2018-11-13 18:39:27
Writing application : v28.1.0 ('Morning Child') 64-bit
Writing library : libebml v1.3.6 + v1.4.9

Video
ID : 1
Format : AVC
Format/Info : Advanced Video Codec
Format profile : [email protected]
Format settings : CABAC / 11 Ref Frames
Format settings, CABAC : Yes
Format settings, ReFrames : 11 frames
Codec ID : V_MPEG4/ISO/AVC
Duration : 1 h 34 min
Bit rate : 3 524 kb/s
Width : 1 194 pixels
Height : 500 pixels
Display aspect ratio : 2.40:1
Frame rate mode : Constant
Frame rate : 23.976 (24000/1001) FPS
Color space : YUV
Chroma subsampling : 4:2:0
Bit depth : 8 bits
Scan type : Progressive
Bits/(Pixel*Frame) : 0.246
Stream size : 2.32 GiB (85%)
Title : Tarzan 2013
Writing library : core 142 r2431kMod ac76440
Encoding settings : cabac=1 / ref=11 / deblock=1:-2:-1 / analyse=0x3:0x133 / me=umh / subme=11 / psy=1 / fade_compensate=0.00 / psy_rd=0.63:0.00 / mixed_ref=1 / me_range=32 / chroma_me=1 / trellis=2 / 8x8dct=1 / cqm=0 / deadzone=21,11 / fast_pskip=0 / chroma_qp_offset=-2 / threads=12 / lookahead_threads=3 / sliced_threads=0 / nr=0 / decimate=1 / interlaced=0 / bluray_compat=0 / constrained_intra=0 / fgo=0 / bframes=13 / b_pyramid=2 / b_adapt=2 / b_bias=0 / direct=1 / weightb=1 / open_gop=0 / weightp=2 / keyint=250 / keyint_min=23 / scenecut=40 / intra_refresh=0 / rc_lookahead=70 / rc=2pass / mbtree=0 / bitrate=3524 / ratetol=1.0 / qcomp=0.81 / qpmin=0 / qpmax=69 / qpstep=4 / cplxblur=20.0 / qblur=0.5 / vbv_maxrate=50000 / vbv_bufsize=62500 / nal_hrd=none / filler=0 / ip_ratio=1.40 / pb_ratio=1.30 / aq=3:0.90
Language : English
Default : Yes
Forced : No
Color range : Limited
Color primaries : BT.709
Transfer characteristics : BT.709
Matrix coefficients : BT.709

Audio #1
ID : 2
Format : AC-3
Format/Info : Audio Coding 3
Commercial name : Dolby Digital
Codec ID : A_AC3
Duration : 1 h 34 min
Bit rate mode : Constant
Bit rate : 192 kb/s
Channel(s) : 2 channels
Channel layout : L R
Sampling rate : 48.0 kHz
Frame rate : 31.250 FPS (1536 SPF)
Bit depth : 16 bits
Compression mode : Lossy
Stream size : 129 MiB (5%)
Title : MOV | Новий канал
Language : Ukrainian
Service kind : Complete Main
Default : Yes
Forced : Yes

Audio #2
ID : 3
Format : AC-3
Format/Info : Audio Coding 3
Commercial name : Dolby Digital
Codec ID : A_AC3
Duration : 1 h 34 min
Bit rate mode : Constant
Bit rate : 448 kb/s
Channel(s) : 6 channels
Channel layout : L R C LFE Ls Rs
Sampling rate : 48.0 kHz
Frame rate : 31.250 FPS (1536 SPF)
Bit depth : 16 bits
Compression mode : Lossy
Stream size : 302 MiB (11%)
Title : , 6 ch, 48 kHz, 448 kbps - Dubbing
Language : English
Service kind : Complete Main
Default : No
Forced : No

Text
ID : 4
Format : UTF-8
Codec ID : S_TEXT/UTF8
Codec ID/Info : UTF-8 Plain Text
Duration : 1 h 27 min
Bit rate : 26 b/s
Count of elements : 517
Stream size : 17.0 KiB (0%)
Title : SRT, Full
Language : English
Default : No
Forced : No

Menu
00:00:00.000 : en:Chapter 1
00:07:14.476 : en:Chapter 2
00:12:42.345 : en:Chapter 3
00:18:34.155 : en:Chapter 4
00:24:37.226 : en:Chapter 5
00:30:00.674 : en:Chapter 6
00:36:27.852 : en:Chapter 7
00:42:10.862 : en:Chapter 8
00:48:28.447 : en:Chapter 9
00:53:27.579 : en:Chapter 10
01:00:07.312 : en:Chapter 11
01:05:34.139 : en:Chapter 12
01:11:37.502 : en:Chapter 13
01:18:31.290 : en:Chapter 14
01:25:16.987 : en:Chapter 15
01:28:01.985 : en:Chapter 16
Скріншоти:



Запис: xslim
Зведення: sergiyko


 Трекер:    Зареєстрований   

Завантажити / скачати мультфільм українською



відео для новачків



 Зареєстрований:   2018-11-13 21:57
 Розмір:   2.74 GB 
 Оцінка мультфільму:   8.1/10 (Голосів: 8)
   
Інші релізи
   Тарзан / Tarzan (2013) 1080p Ukr/Eng | Sub Eng sergiyko.5  3 / 0   6.79 GB   2018-11-13 22:56 
   Тарзан / Tarzan (2013) 1080p 3D [Half OverUnder] Ukr (Mic)/Eng GEORGKys  2 / 0   8.26 GB   2016-02-26 21:38 
   Тарзан / Tarzan (2013) | Mic legos25  11 / 0   1.19 GB   2016-02-16 23:13 
Ваш часовий пояс: GMT + 2 Години

Нова тема   Відповісти