Тарзан та Джейн / Tarzan & Jane (2002) -AVC

Нові коментарі

Нова тема   Відповісти
Останній раз роздавалося [email protected] (2020-10-31)
Автор Повідомлення
sergiyko.5 
Забанено
Забанено


З нами з: 25.02.16
Востаннє: 29.10.20
Повідомлень: 3651

2018-11-13 17:08  
Тарзан та Джейн / Tarzan & Jane (2002) -AVC

Тарзан та Джейн / Tarzan & Jane (2002) -AVC

Жанр: пригоди, сімейний
Країна: США
Кінокомпанія: Walt Disney
Режисер: Дон Макіннон, Віктор Кук, Стів Лотер

Сюжет:
Ось уже пройшов майже цілий рік з тих пір, як Тарзан і Джейн одружилися. Підходить річниця весілля і Джейн ніяк не може вирішити, що ж організувати в цей пам'ятний для всіх день і що подарувати Тарзану. Покликавши на допомогу своїх друзів: слона і мавпу, а так само свого батька, вони разом намагаються придумати, як же можна провести цей вечір, а також це стало приводом, щоб згадати про всі події, що сталися за останній час: про те, як до Джейн приїхали з Англії шкільні подруги і вони разом рятувалися від пантер, або як Тарзан ризикував життям, щоб подарувати Джейн величезний діамант ...




Тривалість: 01:15:23
Якість:

Відео: кодек: h264 розмір кадру: 720 х 424 бітрейт: 1700 кб/с
Аудіо: мова: українська переклад: багатоголосий закадровий кодек: 2.0 бітрейт: 192 кб/с
Озвучення:
Інформація про файл:
General
Unique ID : 136968382204617070430626277232625773450 (0x670B269F8FBC5D0D6AA33CCEA04AEB8A)
Complete name : G:\Torrents2\MULT\Tarzan.and.Jane.2002.-AVC.
Format :
Format version : Version 4
File size : 1.01 GiB
Duration : 1 h 15 min
Overall bit rate : 1 922 kb/s
Movie name : Tarzan and Jane 2002 by sergiyko
Encoded date : UTC 2018-11-13 14:59:25
Writing application : v28.1.0 ('Morning Child') 64-bit
Writing library : libebml v1.3.6 + v1.4.9

Video
ID : 1
Format : AVC
Format/Info : Advanced Video Codec
Format profile : [email protected]
Format settings : CABAC / 16 Ref Frames
Format settings, CABAC : Yes
Format settings, ReFrames : 16 frames
Codec ID : V_MPEG4/ISO/AVC
Duration : 1 h 15 min
Bit rate : 1 729 kb/s
Width : 720 pixels
Height : 424 pixels
Display aspect ratio : 5:3
Frame rate mode : Constant
Frame rate : 23.976 (24000/1001) FPS
Color space : YUV
Chroma subsampling : 4:2:0
Bit depth : 8 bits
Scan type : Progressive
Bits/(Pixel*Frame) : 0.236
Stream size : 932 MiB (90%)
Title : Tarzan and Jane 2002
Writing library : core 152 r2851 ba24899
Encoding settings : cabac=1 / ref=16 / deblock=1:1:1 / analyse=0x3:0x133 / me=umh / subme=9 / psy=1 / psy_rd=0.40:0.00 / mixed_ref=1 / me_range=16 / chroma_me=1 / trellis=2 / 8x8dct=1 / cqm=0 / deadzone=21,11 / fast_pskip=1 / chroma_qp_offset=-2 / threads=10 / lookahead_threads=1 / sliced_threads=0 / nr=0 / decimate=1 / interlaced=0 / bluray_compat=0 / constrained_intra=0 / bframes=5 / b_pyramid=2 / b_adapt=2 / b_bias=0 / direct=3 / weightb=1 / open_gop=0 / weightp=2 / keyint=250 / keyint_min=23 / scenecut=40 / intra_refresh=0 / rc_lookahead=60 / rc=crf / mbtree=1 / crf=16.0 / qcomp=0.70 / qpmin=0 / qpmax=69 / qpstep=4 / ip_ratio=1.40 / aq=1:0.60
Language : English
Default : Yes
Forced : No

Audio
ID : 2
Format : AC-3
Format/Info : Audio Coding 3
Commercial name : Dolby Digital
Codec ID : A_AC3
Duration : 1 h 15 min
Bit rate mode : Constant
Bit rate : 192 kb/s
Channel(s) : 2 channels
Channel layout : L R
Sampling rate : 48.0 kHz
Frame rate : 31.250 FPS (1536 SPF)
Bit depth : 16 bits
Compression mode : Lossy
Stream size : 104 MiB (10%)
Title : MOV | Новий канал
Language : Ukrainian
Service kind : Complete Main
Default : Yes
Forced : No

Menu
00:02:59.134 : :Chapter 01
00:08:53.334 : :Chapter 02
00:15:04.334 : :Chapter 03
00:24:16.102 : :Chapter 04
00:25:04.602 : :Chapter 05
00:29:38.602 : :Chapter 06
00:37:10.303 : :Chapter 07
00:39:59.570 : :Chapter 08
00:44:58.270 : :Chapter 09
00:47:05.104 : :Chapter 10
00:48:22.604 : :Chapter 11
00:50:37.106 : :Chapter 12
00:54:56.306 : :Chapter 13
01:00:37.306 : :Chapter 14
01:08:41.108 : :Chapter 15
Скріншоти:



Запис/зведення/ріп: sergiyko


Срібний реліз (на рейтинг впливає 50% завантаженого)
 Трекер:    Зареєстрований   

Завантажити / скачати мультфільм українською



відео для новачків



 Зареєстрований:   2018-11-13 17:08
 Розмір:   1.01 GB 
 Оцінка мультфільму:   9.9/10 (Голосів: 7)
   
Інші релізи
   Тарзан та Джейн / Tarzan & Jane (2002) Ukr/Eng sergiyko.5  3 / 0   1.26 GB   2018-11-11 19:50 
Ваш часовий пояс: GMT + 2 Години

Нова тема   Відповісти