Посланці 2 / Messengers 2: The Scarecrow (2009) AVC Ukr/Eng | Sub Eng

Нові коментарі

Нова тема   Відповісти
Автор Повідомлення
staf777 
Відео Гуртом - підтримка та поширення
Відео Гуртом - підтримка та поширення


З нами з: 16.11.16
Востаннє: 21.04.19
Повідомлень: 2275

2018-11-13 17:02  
Посланці 2 / Messengers 2: The Scarecrow (2009) AVC Ukr/Eng | Sub Eng

Посланці 2 / Messengers 2: The Scarecrow (2009) AVC Ukr/Eng | Sub Eng


Жанр: жахи
Країна: США



Кінокомпанія: Stage 6 Films, Ghost House Pictures
Режисер: Мартін Барневіц / Martin Barnewitz
Актори: Норман Рідус / Norman Reedus, Гезер Стівенс / Heather Stephens, Річард Ріле / Richard Riehle, Дарсі Фоверс / Darcy Fowers, Метью МакНалті / Matthew McNulty, Лоуренс Белчер / Laurence Belcher, Каліна Ґрін / Kalina Green, Клер Голт / Claire Holt та інші.

Сюжет:
Пріквел «Посланців», повертає нас до ферми, щоб нарешті позначити історію Джона Роллінса – простого фермера Північної Дакоти, який щосили намагається врятувати свою ферму і зберегти сім'ю. Коли він поміщає таємниче опудало в своє поле, життя його змінюється на краще... Але платою за удачу може послужити його голова...


Тривалість: 01:33:45
Якість: AVC
Відео:
кодек:
розмір кадру: 1024х576
бітрейт: 3500 кб/с

Аудіо # 1:
мова: українська
переклад: багатоголосий закадровий
кодек: 2.0
бітрейт: 192 кб/с

Аудіо # 2:
мова: англійська
переклад: оригінал
кодек: 5.1
бітрейт: 448 кб/с

Субтитри:
мова: англійська
тип: програмні (м'які)
формат: *.srt
Info
General
Unique ID : 167855565012441962264863023170324390728 (0x7E47CE4F64C24D83E4C76DDDE97DE348)
Complete name : N:\ Messengers 2 The Scarecrow (2009) AVC [UA][ENG][Hurtom].
Format :
Format version : Version 4 / Version 2
File size : 2.71 GiB
Duration : 1 h 33 min
Overall bit rate : 4 139 kb/s
Movie name : Messengers 2: The Scarecrow (2009) AVC [UA][ENG][Hurtom]
Encoded date : UTC 2018-11-13 15:44:51
Writing application : v24.0.0 ('Beyond The Pale') 64-bit
Writing library : libebml v1.3.6 + v1.4.9
Cover : Yes
Attachments : cover.jpg

Video
ID : 1
Format : AVC
Format/Info : Advanced Video Codec
Format profile : [email protected]
Format settings : CABAC / 9 Ref Frames
Format settings, CABAC : Yes
Format settings, ReFrames : 9 frames
Codec ID : V_MPEG4/ISO/AVC
Duration : 1 h 33 min
Bit rate : 3 500 kb/s
Width : 1 024 pixels
Height : 576 pixels
Display aspect ratio : 16:9
Frame rate mode : Constant
Frame rate : 23.976 (24000/1001) FPS
Color space : YUV
Chroma subsampling : 4:2:0
Bit depth : 8 bits
Scan type : Progressive
Bits/(Pixel*Frame) : 0.247
Stream size : 2.29 GiB (84%)
Title : MediaClub
Writing library : core 142 r2409+42 04be48a tMod [[email protected]:2:0 X86]
Encoding settings : cabac=1 / ref=9 / deblock=1:-2:-2 / analyse=0x3:0x133 / me=umh / subme=11 / psy=1 / fade_compensate=0.00 / psy_rd=1.00:0.15 / mixed_ref=1 / me_range=32 / chroma_me=1 / trellis=2 / 8x8dct=1 / cqm=0 / deadzone=21,11 / fast_pskip=0 / chroma_qp_offset=-3 / threads=6 / lookahead_threads=1 / sliced_threads=0 / nr=0 / decimate=0 / interlaced=0 / bluray_compat=0 / constrained_intra=0 / fgo=0 / bframes=8 / b_pyramid=2 / b_adapt=2 / b_bias=0 / direct=3 / weightb=1 / open_gop=0 / weightp=2 / keyint=240 / keyint_min=23 / scenecut=40 / intra_refresh=0 / rc=2pass / mbtree=0 / bitrate=3500 / ratetol=1.0 / qcomp=0.60 / qpmin=0:0:0 / qpmax=69:69:69 / qpstep=4 / cplxblur=20.0 / qblur=0.5 / ip_ratio=1.40 / pb_ratio=1.30 / aq=1:1.00 / aq-sensitivity=10.00 / aq-factor=1.00:1.00:1.00 / aq2=0 / aq3=0
Language : English
Default : Yes
Forced : No

Audio #1
ID : 2
Format : AC-3
Format/Info : Audio Coding 3
Codec ID : A_AC3
Duration : 1 h 33 min
Bit rate mode : Constant
Bit rate : 192 kb/s
Channel(s) : 2 channels
Channel positions : Front: L R
Sampling rate : 48.0 kHz
Frame rate : 31.250 FPS (1536 SPF)
Bit depth : 16 bits
Compression mode : Lossy
Stream size : 129 MiB (5%)
Title : [UA-MVO-NLO]
Language : Ukrainian
Service kind : Complete Main
Default : Yes
Forced : Yes

Audio #2
ID : 3
Format : AC-3
Format/Info : Audio Coding 3
Codec ID : A_AC3
Duration : 1 h 33 min
Bit rate mode : Constant
Bit rate : 448 kb/s
Channel(s) : 6 channels
Channel positions : Front: L C R, Side: L R, LFE
Sampling rate : 48.0 kHz
Frame rate : 31.250 FPS (1536 SPF)
Bit depth : 16 bits
Compression mode : Lossy
Stream size : 300 MiB (11%)
Title : TRACK_03_ORIGINAL_ENG
Language : English
Service kind : Complete Main
Default : No
Forced : No

Text
ID : 4
Format : UTF-8
Codec ID : S_TEXT/UTF8
Codec ID/Info : UTF-8 Plain Text
Duration : 1 h 26 min
Bit rate : 40 b/s
Count of elements : 776
Stream size : 25.7 KiB (0%)
Title : TEXT_02_SUB_ENG
Language : English
Default : No
Forced : No








Запис з ТБ: slavik_v_z, Sando7;
Синхронізація: patriot2305
Дякую пану -Star-Lord- за допомогу в створені реліза

Джерело: &
Особиста оцінка: 8 - мені сподобалося
Посланці 2 / Messengers 2: The Scarecrow (2009) AVC Ukr/Eng | Sub Eng Посланці 2 / Messengers 2: The Scarecrow (2009) AVC Ukr/Eng | Sub Eng


 Трекер:    Зареєстрований   

Завантажити / скачати фільм українською



відео для новачків



 Зареєстрований:   2018-11-13 19:50
 Розмір:   2.71 GB 
 Оцінка фільму:   9.2/10 (Голосів: 5)
   
Інші релізи
Dark Invader 
Модератор відео


З нами з: 06.01.11
Востаннє: 21.04.19
Повідомлень: 2579

2018-11-14 02:24  
Додайте рейтинг IMDb.
staf777 
Відео Гуртом - підтримка та поширення
Відео Гуртом - підтримка та поширення


З нами з: 16.11.16
Востаннє: 21.04.19
Повідомлень: 2275

2018-11-14 07:44  
Dark Invader
Додав - вибачаюсь...

Ваш часовий пояс: GMT + 2 Години

Нова тема   Відповісти