Наруто. Останній фільм / The Last. Naruto the Movie (2014) 1080p Ukr/Jap | Sub Ukr

Нові коментарі

Нова тема   Відповісти
Автор Повідомлення
sergiyko.5 
VIP


З нами з: 25.02.16
Востаннє: 20.02.20
Повідомлень: 2939

2018-11-12 21:36  
Наруто. Останній фільм / The Last. Naruto the Movie (2014) 1080p Ukr/Jap | Sub Ukr

Наруто. Останній фільм / The Last. Naruto the Movie (2014) 1080p Ukr/Jap | Sub Ukr

Жанр: пригоди, бойові мистецтва, шьонен
Країна: Японія
Режисер: Кобаясі Цунео


5.82 (888 голосів)

Сюжет:
Десятий фільм Наруто ( «The Last: Naruto the Movie») і сьомий фільм з серії «Naruto: Shippuuden». Є останнім фільмом з усієї серії. Японська прем'єра фільму відбулася 6 грудня 2014 року в честь п'ятнадцятиріччя Наруто. Фільм є проміжною ланкою манги між 699 і 700 главами. За сюжетом фільму в світі шиноби пройшло два роки з фінальної битви Наруто і Саске. За цей час багато що змінилося. Новим Хокаге села, Прихований Лист став Хатаке Какаши. Наруто і його друзі виросли і кардинально змінили свій спосіб. Саске ж продовжує своє мандрівка у пошуках істини для самого себе. Села живуть в мирі і спокої. Здавалося б, нарешті настала довгоочікувана епоха без воєн і страждань. Але доля вирішує знову випробувати шиноби. Оцуцукі Тонер, останній нащадок легендарного клану Оцуцукі, продовжує слідувати кредо своїх предків, а саме, покарати людство за використання чакри. Для цього він збирається обрушити Місяць на Землю. Також він викрадає молодшу сестру Хьюга Хінати - Ханабі і пересаджує її бьякуган собі, щоб пробудити тенсейган - додзюцу, за легендами рівне за силою
ріннегану. Чи зможе Наруто зупинити цього могутнього супротивника і врятувати світ шинобі від знищення - ще раз?


Тривалість: 01:52:03
Якість:

Відео: кодек: 10 bit розмір кадру: 1920x1040 бітрейт: 9170 кб/с
Аудіо # 1: мова: українська переклад: багатоголосий закадровий кодек: 2.0ch бітрейт: 192 кб/с
Озвучення: CINE+ KIDS HD
Аудіо # 2: мова: японська переклад: оригінал кодек: 6.0ch бітрейт: 1239 кб/с
Аудіо # 3: мова: японська переклад: оригінал кодек: 2.0ch бітрейт: 557 кб/с
Субтитри: мова: українська тип: програмні (м’які) формат: *.
Про файл:
General
Unique ID : 301685470084409171599231990569483353950 (0xE2F682105D71AF2D4F81AAFFD627BF5E)
Complete name : G:\Torrents2\MULT\The Last.Naruto the Movie.2014.1080p..Ukr.Jpn.
Format :
Format version : Version 4
File size : 8.73 GiB
Duration : 1 h 52 min
Overall bit rate mode : Variable
Overall bit rate : 11.2 Mb/s
Movie name : The Last. Naruto the Movie 1080p by sergiyko
Encoded date : UTC 2018-11-12 19:15:24
Writing application : v28.1.0 ('Morning Child') 64-bit
Writing library : libebml v1.3.6 + v1.4.9

Video
ID : 1
Format : AVC
Format/Info : Advanced Video Codec
Format profile : High [email protected]
Format settings : CABAC / 4 Ref Frames
Format settings, CABAC : Yes
Format settings, ReFrames : 4 frames
Codec ID : V_MPEG4/ISO/AVC
Duration : 1 h 52 min
Bit rate : 9 169 kb/s
Width : 1 920 pixels
Height : 1 040 pixels
Display aspect ratio : 1.85:1
Frame rate mode : Constant
Frame rate : 23.976 (24000/1001) FPS
Color space : YUV
Chroma subsampling : 4:2:0
Bit depth : 10 bits
Scan type : Progressive
Bits/(Pixel*Frame) : 0.192
Stream size : 7.18 GiB (82%)
Title : The Last Naruto the Movie
Writing library : core 142 r2431+42 c69a006 tMod [[email protected] X86_64]
Encoding settings : cabac=1 / ref=4 / deblock=1:-2:-2 / analyse=0x3:0x133 / me=umh / subme=9 / psy=1 / fade_compensate=0.00 / psy_rd=0.70:0.00 / mixed_ref=1 / me_range=32 / chroma_me=1 / trellis=2 / 8x8dct=1 / cqm=0 / deadzone=21,11 / fast_pskip=1 / chroma_qp_offset=-2 / threads=12 / lookahead_threads=2 / sliced_threads=0 / nr=0 / decimate=0 / interlaced=0 / bluray_compat=0 / constrained_intra=0 / fgo=0 / bframes=8 / b_pyramid=2 / b_adapt=2 / b_bias=0 / direct=3 / weightb=1 / open_gop=0 / weightp=2 / keyint=250 / keyint_min=23 / scenecut=40 / intra_refresh=0 / rc=crf / mbtree=0 / crf=17.0000 / qcomp=0.60 / qpmin=10:10:10 / qpmax=38:38:38 / qpstep=4 / ip_ratio=1.40 / pb_ratio=1.30 / aq=1:1.00 / aq-sensitivity=10.00 / aq-factor=1.00:1.00:1.00 / aq2=0 / aq3=0
Language : Japanese
Default : Yes
Forced : No
Color range : Limited
Color primaries : BT.709
Transfer characteristics : BT.709
Matrix coefficients : BT.709

Audio #1
ID : 2
Format : AC-3
Format/Info : Audio Coding 3
Commercial name : Dolby Digital
Codec ID : A_AC3
Duration : 1 h 52 min
Bit rate mode : Constant
Bit rate : 192 kb/s
Channel(s) : 2 channels
Channel layout : L R
Sampling rate : 48.0 kHz
Frame rate : 31.250 FPS (1536 SPF)
Bit depth : 16 bits
Compression mode : Lossy
Stream size : 154 MiB (2%)
Title : MOV 2ch CINE+ KIDS HD
Language : Ukrainian
Service kind : Complete Main
Default : Yes
Forced : Yes

Audio #2
ID : 3
Format :
Format/Info : Free Lossless Audio Codec
Codec ID : A_FLAC
Duration : 1 h 52 min
Bit rate mode : Variable
Bit rate : 1 239 kb/s
Channel(s) : 6 channels
Channel layout : L R C LFE Ls Rs
Sampling rate : 48.0 kHz
Frame rate : 11.719 FPS (4096 SPF)
Bit depth : 16 bits
Compression mode : Lossless
Stream size : 993 MiB (11%)
Title : Original 6ch
Writing library : libFLAC 1.3.0 (UTC 2013-05-26)
Language : Japanese
Default : No
Forced : No

Audio #3
ID : 4
Format :
Format/Info : Free Lossless Audio Codec
Codec ID : A_FLAC
Duration : 1 h 52 min
Bit rate mode : Variable
Bit rate : 557 kb/s
Channel(s) : 2 channels
Channel layout : L R
Sampling rate : 48.0 kHz
Frame rate : 11.719 FPS (4096 SPF)
Bit depth : 16 bits
Compression mode : Lossless
Stream size : 446 MiB (5%)
Title : Original 2ch
Writing library : libFLAC 1.3.0 (UTC 2013-05-26)
Language : Japanese
Default : No
Forced : No

Text
ID : 5
Format :
Codec ID : S_TEXT/
Codec ID/Info : Advanced Sub Station Alpha
Duration : 1 h 51 min
Bit rate : 107 b/s
Count of elements : 1346
Compression mode : Lossless
Stream size : 87.4 KiB (0%)
Title : Sub Ukr bills_spirit
Language : Ukrainian
Default : No
Forced : No

Menu
00:00:00.000 : uk:Глава 01
00:02:08.627 : uk:Глава 02
00:20:26.307 : uk:Глава 03
00:40:14.369 : uk:Глава 04
00:53:52.646 : uk:Глава 05
01:10:40.944 : uk:Глава 06
01:21:37.516 : uk:Глава 07
01:46:06.484 : uk:Глава 08
01:51:19.631 : uk:Глава 09
Скріншоти:


Запис: Sando7
Зведення: sergiyko
Субтитри: bills_spirit


 Трекер:    Зареєстрований   

Завантажити / скачати аніме українською



відео для новачків



 Зареєстрований:   2018-11-12 21:36
 Розмір:   8.73 GB 
 Оцінка аніме:   8.7/10 (Голосів: 6)
   
Dark Invader 
Модератор відео


З нами з: 06.01.11
Востаннє: 20.02.20
Повідомлень: 2840

2018-11-14 01:41  
Додайте звіт Info.
Toster1234 
VIP


З нами з: 17.10.16
Востаннє: 19.02.20
Повідомлень: 273

2018-12-01 12:07  
ТОП, що ще додати. Дякую за реліз.
Ваш часовий пояс: GMT + 2 Години

Нова тема   Відповісти