Формула 1. Сезон 2018. Етап 20. Гран-Прі Бразилії. Гонка (11.11.2018) HDTV 1080i

Нові коментарі

Нова тема   Відповісти
Автор Повідомлення
sergiyko.5 
Забанено
Забанено


З нами з: 25.02.16
Востаннє: 29.10.20
Повідомлень: 3651

2018-11-12 08:02  
Формула 1. Сезон 2018. Етап 20. Гран-Прі Бразилії. Гонка (11.11.2018) HDTV 1080i

Формула 1. Сезон 2018. Етап 20. Гран-Прі Бразилії. Гонка (11.11.2018) HDTV 1080i

Жанр: Перегони Формула 1
Країна: Бразилія
Телеканал: Перший автомобільний
Коментатор: Максим Подзігун

Опис:
Гонка двадцятого етапу Гран-Прі Бразилії 2018 року відбулась 11 листопада 2018 року о 19 годині за київським часом.


Тривалість: 02:00:22
Якість: HDTV

Відео:кодек: розмір кадру: 1920 х 1080 бітрейт: 5500 кб/с
Аудіо: мова: українська кодек: 2.0 бітрейт: 128 кб/с
Про файл:
General
Unique ID : 142827614668375678094249651463059047057 (0x6B7399165D9ACB4A191F03B99EC28291)
Complete name : G:\Torrents2\SPORT\Formula 1\F1.2018.Race\F1.2018.20.Brazil.Race.1080i.HDTV.Ukr.
Format :
Format version : Version 4
File size : 4.73 GiB
Duration : 2 h 0 min
Overall bit rate : 5 626 kb/s
Encoded date : UTC 2018-11-12 05:57:11
Writing application : v28.1.0 ('Morning Child') 64-bit
Writing library : libebml v1.3.6 + v1.4.9

Video
ID : 1
Format : AVC
Format/Info : Advanced Video Codec
Format profile : [email protected]
Format settings : CABAC / 4 Ref Frames
Format settings, CABAC : Yes
Format settings, ReFrames : 4 frames
Codec ID : V_MPEG4/ISO/AVC
Duration : 2 h 0 min
Bit rate : 5 498 kb/s
Width : 1 920 pixels
Height : 1 080 pixels
Display aspect ratio : 16:9
Frame rate mode : Variable
Frame rate : 27.193 FPS
Original frame rate : 25.000 FPS
Standard : Component
Color space : YUV
Chroma subsampling : 4:2:0
Bit depth : 8 bits
Scan type : MBAFF
Scan type, store method : Interleaved fields
Scan order : Top Field First
Bits/(Pixel*Frame) : 0.097
Stream size : 4.63 GiB (98%)
Language : English
Default : Yes
Forced : No
Color range : Limited
Color primaries : BT.709
Transfer characteristics : BT.709
Matrix coefficients : BT.709

Audio
ID : 2
Format : LC
Format/Info : Advanced Audio Codec Low Complexity
Codec ID : A_AAC-2
Duration : 2 h 0 min
Bit rate : 125 kb/s
Channel(s) : 2 channels
Channel layout : L R
Sampling rate : 48.0 kHz
Frame rate : 46.875 FPS (1024 SPF)
Compression mode : Lossy
Stream size : 108 MiB (2%)
Title : Максим Подзігун
Language : Ukrainian
Default : Yes
Forced : No
Скріншоти:


Автор запису: sergiyko


 Трекер:    Зареєстрований   

Завантажити / скачати торрент



відео для новачків



 Зареєстрований:   2018-11-12 08:02
 Розмір:   4.73 GB 
 Оцінка:   10/10 (Голосів: 24)
   
jvo4458 
Новенький


З нами з: 03.11.18
Востаннє: 04.08.19
Повідомлень: 1

2018-11-12 10:23  
дякую
armogun 
Попереджень: 1
Попереджень: 1 


З нами з: 04.05.13
Востаннє: 27.10.20
Повідомлень: 701

2018-11-12 18:26  
Подзігун насмішив. Не знати що крило можна юзати лише після 2-х кіл старту\рестарту\появи сейвтікару. А ото - 1.9 сек піт Феррарі - "новий рекорд !" так і хотілося крикнути: та що ти бляха бачиш за рекламою VIANOR ?!
Ваш часовий пояс: GMT + 2 Години

Нова тема   Відповісти